<?xml version="1.0" standalone="no"?>
<!DOCTYPE svg PUBLIC "-//W3C//DTD SVG 1.1//EN" "http://www.w3.org/Graphics/SVG/1.1/DTD/svg11.dtd" >
<!--
2016-10-11: Created.
-->
<svg xmlns="http://www.w3.org/2000/svg">
<metadata>
Created by FontForge 20120731 at Tue Oct 11 21:25:45 2016
 By Apache
Created by Apache with FontForge 2.0 (http://fontforge.sf.net)
</metadata>
<defs>
<font id="Flaticon" horiz-adv-x="512" >
  <font-face 
    font-family="Flaticon"
    font-weight="500"
    font-stretch="normal"
    units-per-em="512"
    panose-1="2 0 6 3 0 0 0 0 0 0"
    ascent="448"
    descent="-64"
    bbox="-0.0279531 -64.4898 512.11 448.012"
    underline-thickness="25.6"
    underline-position="-51.2"
    unicode-range="U+0020-F1FF"
  />
    <missing-glyph />
    <glyph glyph-name="space" unicode=" " horiz-adv-x="200" 
 />
    <glyph glyph-name="uniF154" unicode="&#xf154;" 
d="M289.191 205.65c20.3672 0 36.8799 -16.5127 36.8799 -36.8809v-2.71289c0 -20.3662 -16.5127 -36.8799 -36.8799 -36.8799h-8.60547v-112.501c0 -13.5781 -11.0068 -24.5859 -24.5859 -24.5859s-24.5859 11.0078 -24.5859 24.5859v112.501h-8.60547
c-20.3672 0 -36.8799 16.5137 -36.8799 36.8799v2.71289c0 20.3672 16.5127 36.8799 36.8799 36.8799h8.60547v161.672c0 13.5791 11.0068 24.5859 24.5859 24.5859s24.5859 -11.0068 24.5859 -24.5859v-161.671h8.60547zM269.318 153.892
c7.4668 0 13.5225 6.05371 13.5225 13.5225c0 7.46777 -6.05566 13.5225 -13.5225 13.5225h-26.6367c-7.4668 0 -13.5225 -6.05469 -13.5225 -13.5225c0 -7.46875 6.05566 -13.5225 13.5225 -13.5225h26.6367zM103.263 279.409c20.3672 0 36.8789 -16.5117 36.8789 -36.8809
v-2.71289c0 -20.3672 -16.5117 -36.8799 -36.8789 -36.8799h-8.60547v-186.257c0 -13.5791 -11.0088 -24.5859 -24.5859 -24.5859c-13.5791 0 -24.5869 11.0068 -24.5869 24.5859v186.259h-8.60449c-20.3682 0 -36.8799 16.5117 -36.8799 36.8789v2.71289
c0 20.3682 16.5117 36.8799 36.8799 36.8799h8.60449v87.9131c0 13.5791 11.0078 24.5869 24.5869 24.5869c13.5771 0 24.5859 -11.0078 24.5859 -24.5869v-87.9131h8.60547zM83.3896 227.65c7.4668 0 13.5225 6.05371 13.5225 13.5225
c0 7.46777 -6.05566 13.5225 -13.5225 13.5225h-26.6367c-7.4668 0 -13.5225 -6.05469 -13.5225 -13.5225c0 -7.46875 6.05566 -13.5225 13.5225 -13.5225h26.6367zM475.12 316.289c20.3691 0 36.8799 -16.5127 36.8799 -36.8809v-2.71289
c0 -20.3672 -16.5137 -36.8799 -36.8799 -36.8799h-8.60449v-223.137c0 -13.5791 -11.0078 -24.5859 -24.5869 -24.5859c-13.5801 0 -24.5859 11.0068 -24.5859 24.5859v223.138h-8.60547c-20.3672 0 -36.8789 16.5127 -36.8789 36.8799v2.71289
c0 20.3672 16.5117 36.8799 36.8789 36.8799h8.60547v51.0332c0 13.5791 11.0059 24.5869 24.5859 24.5869c13.5791 0 24.5869 -11.0078 24.5869 -24.5869v-51.0332h8.60449zM455.247 264.529c7.4668 0 13.5225 6.05469 13.5225 13.5225
c0 7.46875 -6.05566 13.5225 -13.5225 13.5225h-26.6367c-7.4668 0 -13.5225 -6.05371 -13.5225 -13.5225c0 -7.46777 6.05566 -13.5225 13.5225 -13.5225h26.6367z" />
    <glyph glyph-name="uniF1AB" unicode="&#xf1ab;" 
d="M361.938 222.637c0 -21.8838 -12.126 -33.291 -32.5742 -33.1475c-3.21094 0 -6.51172 0 -8.66406 0.375977v61.8115c2.27832 0.484375 5.72266 0.878906 10.6914 0.878906c19.6943 0 30.7256 -11.0312 30.5469 -29.9189zM258.099 252.646
c10.8877 0 17.5068 -4.9502 17.5244 -14.5469c0 -9.99121 -7.1748 -15.8564 -18.9053 -15.8564c-3.22852 0 -5.63281 0.143555 -7.67773 0.771484v28.8965c1.66895 0.359375 4.73535 0.735352 9.05859 0.735352zM469.973 288.484v-135.031h-278.08v135.031h278.08z
M291.229 238.744c0 8.07227 -3.37207 14.834 -8.46582 19.0674c-5.48926 4.5918 -13.7764 7.03125 -25.292 7.03125c-10.4932 0 -18.2959 -0.771484 -24.0537 -1.81152v-85.0039h15.6055v32.5918c2.15234 -0.520508 4.73535 -0.646484 7.67676 -0.646484
c11.1396 0 20.8438 3.06738 27.2471 9.3457c4.71777 4.61035 7.30078 11.2285 7.28223 19.4258zM378.583 223.157c0 14.5645 -5.09375 24.9502 -13.5605 31.7129c-7.92871 6.6543 -18.9238 9.97266 -35.0498 9.97266c-9.27344 0 -17.9902 -0.771484 -25.0576 -1.81152
v-84.7891c5.2373 -0.62793 12.1787 -1.12988 21.2373 -1.12988c16.7715 0 30.4395 3.94629 39.0137 11.7666c8.17969 7.39062 13.4346 18.7979 13.417 34.2783zM408.071 227.479v23.7852h34.1172v12.915h-49.8477v-86.1709h15.7314v36.6816h31.7129v12.7891h-31.7139z
M389.381 42.4395v96.1074h33.5967v-105.542c0 -4.79004 -2.04492 -9.30957 -5.59668 -12.5205l-89.6318 -80.1973c-3.10352 -2.78027 -7.08496 -4.28711 -11.2285 -4.28711h-257.704c-9.30957 0 -16.7891 7.49805 -16.7891 16.8076v478.367
c0 9.25586 7.47949 16.8252 16.7891 16.8252h347.354c9.27441 0 16.79 -7.56934 16.79 -16.8252v-126.009h-33.5967v109.202h-313.74v-444.754h234.458l1.11133 0.951172v71.874h78.1885v0z" />
    <glyph glyph-name="uniF170" unicode="&#xf170;" 
d="M497.038 173.074c8.26562 0 14.9619 -6.69629 14.9619 -14.96c0 -8.2627 -6.69922 -14.9619 -14.9619 -14.9619h-65.2949c-28.6445 -34.6572 -64.5 -68.6729 -96.3311 -98.8682c-14.7119 -13.9111 -31.3232 -29.6123 -41.1377 -40.2129
c-3.69629 -4.32227 -18.9336 -20.5127 -39.4141 -20.5127c-19.7686 0 -35.1611 15.3193 -39.6445 20.3105c-8.8457 9.50586 -22.7588 22.6133 -38.8574 37.7793l-2.19727 2.06836c-32.3203 30.4004 -68.7412 64.667 -97.7578 99.583h-61.4414
c-8.26367 0 -14.9619 6.7002 -14.9619 14.9619c0 8.26367 6.69824 14.9619 14.9619 14.9619h38.7148c-15.2676 22.4092 -26.165 44.7109 -29.665 66.0615c-7.38086 45.2998 -0.224609 82.5635 21.2656 110.773c21.7031 28.4785 54.8301 44.7441 101.276 49.7305
c0.0390625 0.00390625 0.0771484 0.0078125 0.117188 0.0117188c4.26074 0.431641 8.31738 0.640625 12.4043 0.640625c34.3604 0 69.1035 -13.3936 94.9287 -35.8594c25.8145 22.4648 60.5654 35.8594 94.9512 35.8594c4.08008 0 8.25098 -0.21582 12.4004 -0.643555
c46.5869 -4.99512 79.7324 -21.2676 101.413 -49.7529c21.4883 -28.1934 28.626 -65.4531 21.209 -110.736c-3.48535 -21.3936 -14.376 -43.7588 -29.6211 -66.2344h42.6816zM308.722 72.4248c22.3877 21.2393 48.1836 45.7119 71.3574 70.7227h-11.6006
c-6.84668 0 -12.8203 4.65039 -14.5029 11.2861l-9.11133 35.9463l-29.0742 -70.6162c-2.57812 -6.26074 -9.04102 -10.0088 -15.7588 -9.14062c-6.71484 0.873047 -12.0088 6.14551 -12.9062 12.8584l-12.8037 95.8877l-33.5732 -119.605
c-1.81445 -6.46289 -7.70703 -10.9199 -14.4033 -10.9199c-0.0615234 0 -0.123047 0 -0.186523 0.00195312c-6.77344 0.0830078 -12.6465 4.70703 -14.3154 11.2734l-28.1963 110.881l-13.1709 -56.1562c-1.58691 -6.76367 -7.62012 -11.5449 -14.5674 -11.5449h-27.7061
c23.5283 -25.2236 49.7754 -49.9199 72.5371 -71.3301l2.21777 -2.08691c16.6768 -15.7129 43.7002 -47.5371 51.9023 -47.5371s38.6025 35.6543 53.8623 50.0801zM445.694 245.562c5.62988 34.3555 0.992188 61.5947 -13.7842 80.9795
c-14.8799 19.5508 -39.2822 30.8906 -74.6104 34.6777c-2.75586 0.28418 -5.58984 0.432617 -8.34473 0.432617c-30.3408 0 -61.0117 -14.209 -80.0381 -37.083c-3.68359 -4.42871 -9.14551 -6.99121 -14.9053 -6.99219h-0.00488281
c-5.75781 0 -11.2188 2.55957 -14.9033 6.98438c-19.0508 22.8779 -49.7158 37.0908 -80.0293 37.0908c-2.75195 0 -5.51367 -0.143555 -8.44434 -0.439453c-35.2441 -3.79199 -59.6143 -15.1318 -74.499 -34.6621c-14.7783 -19.3994 -19.4336 -46.6562 -13.8369 -81.0078
c3.54102 -21.6074 18.957 -46.6768 39.7178 -72.3193h42.0381l24.4424 104.212c1.57422 6.71289 7.53223 11.4795 14.4268 11.5439l0.141602 0.000976562c6.83496 0 12.8105 -4.6377 14.498 -11.2744l29.4971 -115.996l38.0791 135.654
c1.91699 6.83496 8.37402 11.3809 15.457 10.8818c7.08301 -0.5 12.8379 -5.90723 13.7773 -12.9453l15.0205 -112.482l25.0273 60.7852c2.45605 5.96582 8.46094 9.6875 14.8984 9.22754c6.43555 -0.458984 11.8525 -4.99219 13.4404 -11.2471l17.3643 -68.5098h25.9785
c20.6865 25.7021 36.0693 50.8408 39.5957 72.4883z" />
    <glyph glyph-name="uniF1F0" unicode="&#xf1f0;" 
d="M466.829 383.551c8.18359 0 14.8154 -6.63184 14.8154 -14.8154c0 -64.5713 -35.6387 -122.651 -93.0986 -151.977c-14.0771 -43.2939 -48.7969 -77.3447 -92.5039 -90.4795c0.0195312 -0.314453 0.0478516 -0.626953 0.0478516 -0.948242v-120.189h14.2373
c29.957 0 54.3281 -24.3691 54.3281 -54.3262c0 -8.18262 -6.63184 -14.8154 -14.8154 -14.8154h-187.68c-8.18359 0 -14.8154 6.63281 -14.8154 14.8154c0 29.9551 24.3711 54.3262 54.3281 54.3262h14.2373v120.189c0 0.319336 0.0283203 0.632812 0.0478516 0.948242
c-43.707 13.1367 -78.4268 47.1855 -92.5039 90.4814c-57.4609 29.3242 -93.0986 87.4023 -93.0986 151.977c0 8.18359 6.63184 14.8154 14.8154 14.8154h71.4658v34.8164h-8.79199c-8.18262 0 -14.8154 6.63281 -14.8154 14.8154s6.63281 14.8154 14.8154 14.8154h23.6074
h249.096h23.6074c8.18262 0 14.8154 -6.63281 14.8154 -14.8154s-6.63281 -14.8154 -14.8154 -14.8154h-8.79199v-34.8184h71.4658zM60.75 353.922c4.08691 -39.457 24.3994 -74.8574 55.9902 -98.2725c-0.0390625 1.36621 -0.103516 2.72656 -0.103516 4.10059v94.1719
h-55.8867zM310.327 -24.4902h-108.656c-8.0625 0 -15.2383 -3.88379 -19.7471 -9.88086h148.15c-4.50879 5.99609 -11.6826 9.88086 -19.7471 9.88086zM245.541 5.14062h20.9199v115.681c-3.45898 -0.258789 -6.9375 -0.433594 -10.46 -0.433594
s-7.00293 0.174805 -10.46 0.433594v-115.681zM365.73 259.75v158.619h-219.463v-158.619c0 -60.5059 49.2256 -109.731 109.731 -109.731c60.5068 0 109.731 49.2256 109.731 109.731zM395.26 255.649c31.5908 23.417 51.9033 58.8154 55.9902 98.2725h-55.8867v-94.1719
c0 -1.37402 -0.0644531 -2.73438 -0.103516 -4.10059z" />
    <glyph glyph-name="uniF11D" unicode="&#xf11d;" 
d="M334.328 331.011c-21.8584 12.8408 -29.1201 40.9434 -16.2881 62.791c12.832 21.8311 40.9248 29.1357 62.7988 16.2949c21.8379 -12.8379 29.1152 -40.9512 16.2666 -62.7891c-12.8145 -21.8311 -40.9395 -29.1426 -62.7773 -16.2969zM409.278 173.016
c56.6445 0 102.722 -46.0762 102.722 -102.719c0 -56.6445 -46.0771 -102.729 -102.722 -102.729c-56.6396 0 -102.717 46.084 -102.717 102.729c0 14.8105 3.2207 28.8652 8.8916 41.5967l-19.8574 11.9854l-30.5479 -50.0771
c-5.66797 -9.27637 -15.5645 -14.4082 -25.6943 -14.4082c-5.33301 0 -10.7334 1.4248 -15.6182 4.40332c-14.1699 8.64453 -18.6494 27.1475 -10.0107 41.3203l33.5273 54.9473l-62.7646 25.4697h-18.499l-11.4082 -26.709
c30.377 -17.8633 50.8711 -50.8066 50.8711 -88.5273c0 -56.6445 -46.0723 -102.729 -102.718 -102.729c-56.6396 0 -102.733 46.084 -102.733 102.729c0 56.6416 46.0938 102.718 102.736 102.719c9.77832 0 19.2061 -1.45898 28.1807 -4.02539l7.07715 16.5615
c-9.45996 0.0410156 -17.1094 7.69922 -17.1094 17.1582c0 9.0332 7.03027 16.2197 15.8838 16.916c-1.07422 5.53613 -0.652344 11.4404 1.62891 17.0586c1.84375 4.53711 4.72754 8.27734 8.18359 11.2891l-0.0166016 0.0253906l111.288 90.1211
c8.4043 6.80176 35.3672 18.8633 57.4658 -6.22168c10.7324 -12.1846 11.5225 -29.4551 4.96289 -43.1914l2.41699 -19.6416l53.958 20.1787c11.0215 4.1582 23.4658 -1.4668 27.625 -12.5879c4.15918 -11.1123 -1.49121 -23.4824 -12.5967 -27.6338l-4.89551 -1.8291
l15.0254 -74.5557c2.4668 0.174805 4.95117 0.376953 7.46387 0.376953zM102.733 -6.66504c38.0254 0 69.4766 27.7822 75.6475 64.0811h-54.2109c-4.39551 -7.30371 -12.3086 -12.2441 -21.4375 -12.2441c-13.8711 0 -25.124 11.2539 -25.124 25.126
c0 12.6963 9.45898 23.0869 21.7021 24.7725l21.3193 49.8662c-5.7666 1.38281 -11.707 2.31641 -17.8965 2.31641c-42.4346 0 -76.9688 -34.5195 -76.9688 -76.9551s34.5342 -76.9629 76.9688 -76.9629zM178.382 83.1787
c-3.6748 21.6445 -16.2881 40.1982 -34.0488 51.6787l-21.3193 -49.875c0.419922 -0.579102 0.788086 -1.19141 1.15723 -1.80371h54.2109zM309.011 145.868l19.7891 -11.9424c12.2139 15.4141 28.7158 27.2305 47.7373 33.6455l-14.1885 70.4805l-50.1348 -18.7422
c-2.43359 -0.907227 -4.97949 -1.36035 -7.51465 -1.36035c-3.87305 0 -7.7334 1.04883 -11.1396 3.11133c-5.61719 3.41406 -9.37598 9.21777 -10.1631 15.7432l-1.87793 15.2959l-33.7803 -27.3633l54.8975 -22.2773c8.16797 -3.32031 14.4746 -10.0557 17.2451 -18.4326
c2.7666 -8.37793 1.70898 -17.5459 -2.88867 -25.0771zM390.865 96.4541l-9.16113 45.4736c-11.8887 -4.59668 -22.2061 -12.0947 -30.4082 -21.5879zM409.278 -6.66504c42.4365 0 76.957 34.5273 76.958 76.9629c0 42.4355 -34.5205 76.9551 -76.957 76.9551
c-0.788086 0 -1.52344 -0.210938 -2.31152 -0.235352l10.7012 -53.1465c9.72363 -3.4707 16.7217 -12.6631 16.7217 -23.5732c0 -13.8711 -11.2412 -25.126 -25.1123 -25.126c-13.8535 0 -25.1074 11.2539 -25.1074 25.126
c0 0.0322266 0.0166016 0.0654297 0.0166016 0.0986328l-46.376 27.9961c-3.43945 -8.73145 -5.48535 -18.1572 -5.48535 -28.0947c0 -42.4355 34.5156 -76.9629 76.9521 -76.9629z" />
    <glyph glyph-name="uniF137" unicode="&#xf137;" 
d="M181.073 224.195c17.2451 0 31.2197 -13.9736 31.2197 -31.2188s-13.9746 -31.2188 -31.2197 -31.2188c-17.2461 0 -31.2197 13.9736 -31.2197 31.2188c0 17.2324 13.9736 31.2188 31.2197 31.2188zM280.976 224.195c17.2461 0 31.2197 -13.9736 31.2197 -31.2188
s-13.9736 -31.2188 -31.2197 -31.2188c-17.2451 0 -31.2188 13.9736 -31.2188 31.2188c0 17.2324 13.9736 31.2188 31.2188 31.2188zM274.732 436.488c131.034 0 237.268 -106.233 237.268 -237.269s-106.233 -237.269 -237.269 -237.27
c-33.542 0 -65.4111 7.04395 -94.3447 19.6064c-17.1455 -13.5996 -57.9062 -41.6709 -180.387 -32.0928c73.6777 10.252 110.08 53.3232 121.133 69.1074c-51.1377 43.5195 -83.6689 108.245 -83.6689 180.648c0 131.035 106.234 237.269 237.269 237.269z
M274.732 -13.0723c117.247 0 212.293 95.0439 212.293 212.292s-95.0459 212.293 -212.293 212.293c-117.249 0 -212.293 -95.0449 -212.293 -212.293s95.0449 -212.292 212.293 -212.292zM380.879 224.195c17.2441 0 31.2188 -13.9736 31.2188 -31.2188
s-13.9746 -31.2188 -31.2188 -31.2188c-17.2461 0 -31.2197 13.9736 -31.2197 31.2188c0 17.2324 13.9736 31.2188 31.2197 31.2188z" />
    <glyph glyph-name="uniF19D" unicode="&#xf19d;" 
d="M341.333 337.066c-21.333 0 -38.3994 17.0674 -38.3994 38.4004s17.0664 38.3994 38.3994 38.3994c21.334 0 38.4004 -17.0664 38.4004 -38.3994s-17.0664 -38.4004 -38.4004 -38.4004zM405.333 183.467c59.7334 0 106.667 -46.9326 106.667 -106.667
s-46.9336 -106.666 -106.667 -106.666s-106.666 46.9326 -106.666 106.666s46.9326 106.667 106.666 106.667zM405.333 2.13379c40.5332 0 74.667 34.1338 74.667 74.666c0 40.5342 -34.1338 74.667 -74.667 74.667s-74.666 -34.1328 -74.666 -74.667
c0 -40.5322 34.1328 -74.666 74.666 -74.666zM315.733 226.134l-36.2666 53.333l-49.0664 -49.0664l46.9326 -36.2666v-138.667h-38.3994v106.667l-72.5332 42.666c-10.667 6.40039 -17.0674 19.2002 -17.0674 32c0 10.667 4.2666 19.2002 10.667 25.6006l78.9336 78.9326
c6.39941 6.40039 14.9326 10.667 25.5996 10.667c14.9336 0 25.6006 -6.40039 32 -17.0664l40.5332 -70.4004h68.2666v-38.3994h-89.5996zM106.667 183.467c59.7334 0 106.666 -46.9326 106.666 -106.667s-46.9326 -106.666 -106.666 -106.666
s-106.667 46.9326 -106.667 106.666s46.9336 106.667 106.667 106.667zM106.667 2.13379c40.5332 0 74.666 34.1338 74.666 74.666c0 40.5342 -34.1328 74.667 -74.666 74.667s-74.667 -34.1328 -74.667 -74.667c0 -40.5322 34.1338 -74.666 74.667 -74.666z" />
    <glyph glyph-name="uniF1C8" unicode="&#xf1c8;" 
d="M460.8 5.41797c0.104492 -0.417969 0.104492 -0.836914 0.104492 -1.25586c0 -37.5889 -34.4473 -68.1621 -76.8516 -68.1621h-256.105c-42.4043 0 -76.8516 30.5732 -76.8516 68.1621c0 0.418945 0.104492 0.837891 0.104492 1.25586l29.3164 330.131
c0.628906 7.3291 6.70117 12.8779 14.0303 12.8779h60.3096c0.837891 55.0742 45.8604 99.5732 101.144 99.5732s100.306 -44.499 101.144 -99.5732h60.3096c7.22461 0 13.4014 -5.54883 14.0303 -12.8779zM256 419.73c-39.6826 0 -72.0361 -31.8301 -72.874 -71.3037
h145.748c-0.837891 39.4736 -33.1914 71.3037 -72.874 71.3037zM384.053 -35.7305c26.4893 0 48.1631 17.5908 48.582 39.2646l-28.165 316.519h-47.3262v-42.9287c0 -7.85254 -6.28223 -14.1348 -14.1348 -14.1348s-14.1348 6.28223 -14.1348 14.1348v42.9287h-145.853
v-42.9287c0 -7.85254 -6.28223 -14.1348 -14.1348 -14.1348s-14.1348 6.28223 -14.1348 14.1348v42.9287h-47.3262l-28.0605 -316.519c0.418945 -21.6738 21.9873 -39.2646 48.582 -39.2646h256.105z" />
    <glyph glyph-name="uniF11F" unicode="&#xf11f;" 
d="M70.0137 262.014c35.8105 0 65.4102 -27.0303 69.5117 -61.7568h66.9258c4.5625 0 8.25879 -3.69727 8.25879 -8.25781s-3.69629 -8.25781 -8.25879 -8.25781h-66.9258c-4.10156 -34.7256 -33.7012 -61.7568 -69.5117 -61.7568
c-4.56152 0 -8.25781 3.69824 -8.25781 8.25879s3.69629 8.25781 8.25781 8.25781c29.499 0 53.498 23.999 53.498 53.498c0 29.5 -23.999 53.499 -53.498 53.499c-4.56152 0 -8.25781 3.69727 -8.25781 8.25781s3.69629 8.25781 8.25781 8.25781zM154.748 408.506
c51.2764 0 92.9941 -41.7168 92.9941 -92.9932v-247.024c0 -51.2773 -41.7178 -92.9941 -92.9941 -92.9941c-48.6475 0 -88.6895 37.5449 -92.667 85.1816c-34.8857 3.95215 -62.0811 33.6436 -62.0811 69.5684c0 26.6943 15.0186 49.9482 37.0469 61.7559
c-22.0283 11.8066 -37.0469 35.0615 -37.0469 61.7559c0 35.9248 27.1953 65.6162 62.0811 69.5684c3.97754 47.6367 44.0195 85.1816 92.667 85.1816zM231.226 239.489v76.0225c0 42.1699 -34.3066 76.4775 -76.4775 76.4775
c-42.1689 0 -76.4756 -34.3086 -76.4756 -76.4775c0 -4.56055 -3.69629 -8.25781 -8.25879 -8.25781c-29.498 0 -53.4971 -23.999 -53.4971 -53.498s23.999 -53.498 53.4971 -53.498c4.5625 0 8.25879 -3.69727 8.25879 -8.25781s-3.69629 -8.25781 -8.25879 -8.25781
c-29.498 0 -53.4971 -23.999 -53.4971 -53.498s23.999 -53.499 53.4971 -53.498c4.5625 0 8.25879 -3.69727 8.25879 -8.25781c0 -42.1699 34.3066 -76.4775 76.4756 -76.4775c42.1709 0 76.4775 34.3086 76.4775 76.4775v76.0234
c-38.2988 -4.13281 -68.2178 -36.6445 -68.2178 -76.0234c0 -4.56055 -3.69629 -8.25879 -8.25781 -8.25879c-4.5625 0 -8.25879 3.69824 -8.25879 8.25879c0 48.4912 37.3145 88.4102 84.7344 92.6055v61.8135c-47.4199 4.19531 -84.7344 44.1143 -84.7344 92.6055
c0 4.56152 3.69629 8.25879 8.25879 8.25879c4.56152 0 8.25781 -3.69727 8.25781 -8.25879c0 -39.3779 29.9189 -71.8906 68.2178 -76.0234zM441.986 138.502c4.56152 0 8.25781 -3.69727 8.25781 -8.25781s-3.69629 -8.25781 -8.25781 -8.25781
c-35.8105 0 -65.4102 27.0303 -69.5117 61.7559h-66.9258c-4.5625 0 -8.25879 3.69727 -8.25879 8.25781s3.69629 8.25781 8.25879 8.25781h66.9258c4.10156 34.7275 33.7012 61.7578 69.5117 61.7578c4.56152 0 8.25781 -3.69824 8.25781 -8.25879
s-3.69629 -8.25781 -8.25781 -8.25781c-29.499 0 -53.498 -24 -53.498 -53.499s23.999 -53.498 53.498 -53.498zM474.953 192c22.0283 -11.8076 37.0469 -35.0615 37.0469 -61.7559c0 -35.9248 -27.1953 -65.6162 -62.0811 -69.5693
c-3.97754 -47.6367 -44.0195 -85.1816 -92.667 -85.1816c-51.2764 0 -92.9941 41.7168 -92.9941 92.9941v247.024c0 51.2773 41.7178 92.9941 92.9941 92.9941c48.6475 0 88.6895 -37.5449 92.667 -85.1816c34.8857 -3.95215 62.0811 -33.6436 62.0811 -69.5684
c0 -26.6943 -15.0186 -49.9482 -37.0469 -61.7559zM441.986 76.7451c29.498 0 53.498 24 53.498 53.499s-24 53.498 -53.498 53.498c-4.5625 0 -8.25879 3.69727 -8.25879 8.25781s3.69629 8.25781 8.25879 8.25781c29.498 0 53.498 23.999 53.498 53.498
s-24 53.498 -53.498 53.498c-4.5625 0 -8.25879 3.69727 -8.25879 8.25781c0 42.1699 -34.3066 76.4775 -76.4756 76.4775c-42.1709 0 -76.4775 -34.3086 -76.4775 -76.4775v-76.0234c38.2988 4.13281 68.2178 36.6445 68.2178 76.0234
c0 4.56055 3.69629 8.25879 8.25781 8.25879c4.5625 0 8.25879 -3.69824 8.25879 -8.25879c0 -48.4912 -37.3145 -88.4102 -84.7344 -92.6055v-61.8135c47.4199 -4.19531 84.7344 -44.1143 84.7344 -92.6055c0 -4.56152 -3.69629 -8.25879 -8.25879 -8.25879
c-4.56152 0 -8.25781 3.69727 -8.25781 8.25879c0 39.3779 -29.9189 71.8906 -68.2178 76.0234v-76.0234c0 -42.1709 34.3066 -76.4775 76.4775 -76.4775c42.1689 0 76.4756 34.3086 76.4756 76.4775c0 4.56055 3.69629 8.25781 8.25879 8.25781z" />
    <glyph glyph-name="uniF1C4" unicode="&#xf1c4;" 
d="M0 224v224h224v-224h-224zM32 416v-160h160v160h-160zM288 448h224v-224h-224v224zM480 256v160h-160v-160h160zM0 -64v224h224v-224h-224zM32 128v-160h160v160h-160zM288 -64v224h224v-224h-224zM320 128v-160h160v160h-160z" />
    <glyph glyph-name="uniF1C6" unicode="&#xf1c6;" 
d="M490.109 274.016c0.893555 -2.49023 21.8906 -61.9033 21.8906 -141.823v-10.666v-44.6914h-511.935v44.6914h-0.0654297l0.0644531 10.7305c0.00488281 0.889648 0.223633 22.0557 8.15137 44.6855c11.0918 31.6621 31.7529 50.8164 59.748 55.3916
c41.9473 6.85352 111.938 21.8008 234.904 72.2471l6.2998 2.58496l4.99609 -4.62988c0.0585938 -0.0527344 8.94141 -8.07617 25.5176 -15.9736c15.2188 -7.25195 40.2764 -15.8965 73.2168 -15.8965c20.6094 0 42.1719 3.35156 64.0947 9.95801l9.69434 2.92188z
M490.536 142.857c-1.20703 48.667 -10.3711 88.7871 -16.0322 109.261c-30.4873 -25.7109 -57.6318 -56.8857 -60.8877 -109.261h76.9199zM305.119 282.458c-5.0498 -2.05371 -10.0039 -4.04297 -14.8789 -5.98047v-49.1396h-21.3311v40.8164
c-8.86426 -3.39258 -17.416 -6.58691 -25.668 -9.58789v-45.1152h-21.3311v37.5371c-8.93652 -3.09668 -17.4873 -5.95703 -25.6689 -8.60059v-44.8848h-21.3311v38.2188c-17.5645 -5.2959 -33.2188 -9.52246 -47.1963 -12.9424
c2.66211 -20.2383 2.54199 -48.2979 -0.374023 -79.9229h264.916c1.65234 30.0391 10.373 56.4736 26.5703 80.5068c6.97559 10.3496 14.8711 19.5381 23.2012 27.9121c-9.84375 -1.28906 -19.5693 -1.94043 -29.1279 -1.94043c-20.6523 0 -51.874 3.19727 -83.333 18.4219
c-11.2891 5.46387 -19.5117 10.9971 -24.4473 14.7012zM28.5166 170.369c-3.63379 -10.2148 -5.41406 -20.2734 -6.28809 -27.5127h83.6826c2.81738 29.5879 3.12598 56.3242 0.914062 75.1162c-13.6045 -2.92676 -25.3076 -5.03809 -35.4209 -6.69043
c-19.9609 -3.26172 -34.3906 -17.0273 -42.8877 -40.9131zM490.669 98.1641v23.3613h-469.273v-23.3613h469.273z" />
    <glyph glyph-name="uniF161" unicode="&#xf161;" 
d="M30.1826 296.101h20.2529v-208.2h-20.2529c-16.6426 0 -30.1826 13.54 -30.1826 30.1826v147.835c0 16.6426 13.54 30.1826 30.1826 30.1826zM417.164 327.59c16.6436 0 30.1826 -13.54 30.1826 -30.1826v-210.814c0 -16.6426 -13.54 -30.1826 -30.1826 -30.1826
h-65.8398c-16.6436 0 -30.1836 13.54 -30.1836 30.1826v87.3008h-130.282v-87.3008c0 -16.6426 -13.5391 -30.1826 -30.1826 -30.1826h-65.8398c-16.6426 0 -30.1826 13.54 -30.1826 30.1826v210.814c0 16.6426 13.54 30.1826 30.1826 30.1826h65.8398
c16.6426 0 30.1826 -13.54 30.1826 -30.1826v-87.293h130.282v87.293c0 16.6426 13.54 30.1826 30.1836 30.1826h65.8398zM481.817 296.101c16.6426 0 30.1826 -13.54 30.1826 -30.1826v-147.836c0 -16.6426 -13.54 -30.1826 -30.1826 -30.1826h-20.2529v208.201h20.2529z
" />
    <glyph glyph-name="uniF14F" unicode="&#xf14f;" 
d="M373.083 334.123l-5.28516 3.31641l-3.70703 2.53809v3.72754l2.15918 3.30566l7.69727 1.56934l1.95801 -9.38184l4.0957 -6.63379l2.72754 -3.1377l4.98047 -1.9375l-4.68555 -5.57031l-9.07617 -0.874023h-6.82324l0.757812 8.09766l5.69629 1.17871zM366.523 331.006
l-9.64453 -6.83398h-5.46484v4.87598l4.68555 7.51758l6.31738 1.46387l4.51758 -1.94824zM236.483 309.452l2.68555 0.0527344l3.06348 -0.631836l-1.31641 -2.7168l-3.33789 -0.28418l-0.673828 -3.23242l-2.5791 -1.60059l-4.12793 -0.347656
c-0.136719 0.96875 -0.231445 1.70605 -0.231445 1.70605h-1.60059v3.47461h6.72852zM219.142 303.145l2.18945 2.72754l2.92773 -2.30566l-0.505859 -3.41211l-4.875 -0.410156zM511.937 194.648c0.0107422 -0.884766 0.0634766 -1.75879 0.0527344 -2.64355
c0 -15.2568 -1.41113 -30.209 -3.99023 -44.75c-0.90625 -5.10742 -1.94824 -10.1504 -3.15918 -15.1729c-4.75977 -19.7852 -11.8242 -38.665 -20.9014 -56.376c-42.4336 -82.8467 -128.64 -139.706 -227.934 -139.706c-141.159 0 -256.005 114.835 -256.005 256.005
c0 58.7871 19.9639 112.972 53.4062 156.228c8.86523 11.4561 18.6367 22.1543 29.2715 31.957c45.6357 42.0654 106.507 67.8105 173.317 67.8105c66.252 0 126.691 -25.292 172.2 -66.7256c4.02246 -3.6748 7.90723 -7.50781 11.6875 -11.4355
c1.33789 -1.36816 2.6748 -2.75879 3.99121 -4.16992c20.0166 -21.6172 36.3691 -46.667 48.0146 -74.1807c0.694336 -1.61035 1.29492 -3.26367 1.94824 -4.89551c8.73926 -21.9229 14.5723 -45.3096 16.9414 -69.7061c0.706055 -7.31836 1.08496 -14.752 1.1582 -22.2383z
M463.754 296.964v-10.3926l4.56934 0.631836l2.42188 -0.0947266c-1.7373 3.89551 -3.55859 7.73926 -5.50684 11.5195zM426.764 341.631l-10.0986 -5.12793l1.01074 -3.35938l16.1211 -0.147461l4.6123 6.86523c-3.70703 4.54883 -7.58203 8.93945 -11.6035 13.2041z
M117.952 370.05v0l-0.0107422 -4.69629h11.5615l2.41113 3.22168v3.66504h-8.3916l-0.442383 -1.75879h-5.12793v-0.431641zM126.145 358.625l-8.19238 -2.33789l2.20117 -2.63184l11.5605 0.726562s0.442383 5.11719 0 5.11719
c-0.441406 0 -5.56934 -0.874023 -5.56934 -0.874023zM480.063 257.004l1.27441 1.17969c-1.86328 6.32812 -3.99023 12.5303 -6.35938 18.627l-12.2461 -0.210938l-6.13867 6.73926l-1.17969 10.835l-6.28613 -3.43262l-3.37988 -13.2461l-9.07617 9.66602
l-0.369141 9.12891l-8.76074 7.5498l-3.25293 3.22168h-10.1719l3.22168 -9.06543l12.2354 -6.82324l2.12695 -2.25391l-2.64258 -1.32617l0.126953 -7.18164l-5.95996 -2.48438l-5.08594 1.11621l-3.17969 4.50586l8.26562 -0.441406l2.24219 3.01074l-18.3418 12.3721
l-1.39062 5.26562l-7.4541 -6.73926l-7.57129 1.54785l-11.498 -14.9414l-2.24316 -5.85449l-7.36035 -0.663086l-10.8975 -0.0634766l-6.49707 3.04297l-1.91602 12.9307l2.34766 6.15918l11.0664 2.42188l12.0674 -2.42188l1.48438 6.68652l-5.12793 1.21094
l1.75879 10.4033l12.1504 1.90625l8.49805 12.0029l8.78125 1.47461l7.91797 -1.16895h2.90625l-1.58984 11.2666l-9.64453 -3.88574l-3.37012 8.42383l-5.59082 0.779297l-1.05273 5.78125l4.56934 4.95898l10.835 4.24316l2.79004 4.99121
c-41.4121 36.4854 -95.6924 58.6914 -155.1 58.6914c-51.543 0 -99.2314 -16.7207 -138.012 -44.9717l11.8457 0.0947266l5.27539 -2.92676l9.95117 -2.14844l0.768555 -3.90625l15.8252 -0.589844l-2.14746 5.0752l-14.0566 0.389648l3.29492 3.06445l-1.1582 3.7168
h-12.6982l13.8564 10.3506h13.2783l6.24414 -8.5918l10.3604 -0.589844l6.24414 6.06543l4.69629 -2.34863l-8.60254 -8.40234s-11.8984 -0.200195 -11.3193 -0.200195s0.979492 -8.19238 0.979492 -8.19238l14.4355 0.400391l1.55859 3.89551l9.9502 0.589844
l1.16895 5.85449l-5.85449 0.990234l1.94824 5.26465l4.48535 1.3584l15.6152 -0.779297l-8.60254 -7.8125l1.37988 -6.04395l8.98145 -1.36914l-0.589844 10.9297l8.59277 4.49609l15.2256 1.75781l22.0596 -9.77051v-8.39258l7.0332 -1.75879l-3.5166 -6.63281h-9.9502
l-2.94824 -7.61328l-22.7656 5.37012l17.8896 9.5293l-6.82324 5.79102l-15.4258 -1.94824l-1.34766 -1.38965l-0.0527344 0.0214844l-0.242188 -0.336914l-4.43262 -4.6123l-7.33887 -0.621094l0.589844 -3.66406l2.56934 -1.06348l-0.105469 -1.21094l-5.9707 -0.853516
l-0.442383 -3.46387l-5.70703 -0.294922l-1.03125 6.88672l-10.2461 -3.11719l-20.9424 -12.2559l2.3584 -8.62402l5.85449 -3.81152l11.709 -1.62207v-13.3096l5.41211 0.874023l4.99121 10.4033l12.4561 3.94922v15.9619l6.92871 5.2334l16.7422 -3.94824l-1.17969 -10.54
h4.48535l12.2988 6.04395l0.589844 -13.8467l8.9707 -5.46484l-0.378906 -8.21289l-8.58203 -2.92676l0.589844 -2.7168l10.3398 -4.70703l-0.199219 -5.6543l-3.00098 -0.25293l-0.0322266 0.158203l-13.0459 4.02246l-0.557617 4.17969h-0.0107422l3.81152 2.62207
v3.81152l-4.10645 1.03223l-1.02148 -3.5166l-7.20215 -1.10547l-0.71582 0.242188v-0.358398l-2.48535 -0.378906l-2.03223 4.10645l-2.34766 1.03223h-5.12793l-2.32715 -1.90625v-4.21191l4.39062 -1.46387l4.32812 -0.610352l-0.96875 -0.431641l-3.94922 -4.38086
l-1.74805 2.19043l-3.81152 1.01074l-10.4033 -9.79199l1.3584 -1.11621l-15.3623 -8.50781l-14.4463 -15.0361l-0.990234 -6.69727l-14.4883 -9.51855l-7.18164 -7.22363l0.790039 -14.4463l-9.96094 4.63281l0.0732422 8.45508l-27.7139 -0.00976562l-14.3516 -7.26562
l-6.2334 -11.4883l-2.46387 -9.10742l4.03223 -8.83496l11.3096 -1.37891l17.9736 12.0137l1.56934 -5.94922l-5.48633 -10.3604l13.6777 -2.33789l1.3584 -21.1221l18.7432 -3.17969l11.9082 13.7617l14.457 -2.9375l5.0752 -7.06543l13.8574 0.821289l0.389648 4.10645
l7.6123 -3.7168l8.57129 -13.457l14.8359 -0.220703l5.47559 -9.57129l0.779297 -11.6992l16.4053 -6.25391l20.6904 -0.210938l6.05469 -9.92969l9.1709 -2.9375l-1.75781 -8.20215l-10.0566 -12.7725l-2.92676 -28.2822l-9.06641 -7.18164l-13.4668 0.411133
l-4.49609 -7.80273l3.32715 -14.6572l-14.6465 -18.7422l-4.68555 -8.59277l-13.9619 -6.70703l-9.18262 -1.38965l-0.378906 -3.89648l6.44434 -1.84277l-0.779297 -4.19043l-5.77051 -5.54883l3.50684 -4.40137l6.94922 -0.210938l-0.389648 -5.37012l-1.84277 -5.26465
l-0.588867 -4.2959l10.2764 -8.65527l-1.36914 -4.49609l-13.9824 0.25293l-13.9102 12.1504l-10.835 19.0488l1.5166 18.3838l-8.20312 10.9404l3.31738 18.5537l-4.875 1.36816v40.2129s-13.668 10.3506 -14.4473 10.3506c-0.789062 0 -7.2334 1.74805 -7.2334 1.74805
l-1.3584 7.62305l-17.7734 22.249l1.75781 8.00195l0.579102 13.0781l12.2881 8.5918l-1.75781 14.6475l-17.9531 1.35742l-14.0576 16.0156l-9.9502 2.7168l-6.44434 1.17969l0.779297 5.85449l-8.20215 1.16797v-3.31641l-20.501 5.0752l-8.25488 12.625l3.34766 6.11816
l-12.9824 18.9424l-2.22168 13.8564h-5.26465l1.75781 -13.4668l8.98145 -13.8574l-0.978516 -5.47461l-7.61328 1.16797l-9.36035 15.9736v18.585l-9.76074 4.69629v13.3721c2.55859 5.99121 5.37988 11.8252 8.40234 17.5322l9.75 11.8457l-0.378906 4.26465
c-3.33789 -5.2334 -6.46484 -10.6035 -9.38184 -16.1104l-8.40234 -10.2031v-7.3291c-12.0566 -28.251 -18.7529 -59.334 -18.7529 -91.9443c0 -129.545 105.39 -234.945 234.925 -234.936c73.4434 0 139.085 33.916 182.214 86.8691h-7.75v15.6045l-8.9707 12.0674v18.7842
l-6.83398 6.81348l-0.589844 7.8125l8.67676 16.584l-16.4785 29.0938l1.96875 19.7422l-14.8467 1.53809l-5.46484 5.47461h-9.96094l-5.06445 -4.68555h-17.5635l-0.589844 -1.55859h-9.77148l-22.4492 25.5664l0.200195 19.9219l3.70605 1.3584l1.37988 7.62305h-5.26465
l-2.15918 8.00293l25.9766 18.7422v13.2773l12.709 7.05566l5.12793 -0.516602h10.4668l8.1709 4.39062l26.3662 2.05371v-13.4775l20.8066 -5.27539l4.10645 -2.92773h3.80078v7.3291l12.0146 1.16895l11.4141 -8.49805h18.7314zM139.633 331.69l3.79004 -7.77051
l6.00195 1.90527l1.91699 7.46582l-5.55957 1.32617zM172.264 314.116v-4.83301h-14.0469l-5.26465 1.46387l1.31641 3.36914l6.75 2.79102h9.22363v-2.79102h2.02148zM178.729 307.378h-7.89648v-7.76074l4.37988 0.810547l3.5166 2.26465v4.68555zM174.77 309.283v5.57031
l4.83301 -4.40137zM176.971 298.017l-5.40234 -0.74707l-0.726562 -1.75879l-3.52734 -0.305664l-1.16895 -5.11719h7.46582l3.35938 3.37012v4.55859zM158.375 307.378l-5.41211 -5.85449l-0.884766 -5.85449l4.10645 -2.20117l9.95117 13.9102h-7.76074zM190.153 299.617
v-4.54883h-7.46582l-2.04199 2.94824v4.2334h0.588867zM183.257 305.872l2.84277 -2.36914l2.87402 2.36914l-3.58984 2.23242zM483.876 245.148l1.66309 -3.13867c-0.294922 1.34863 -0.621094 2.6748 -0.926758 4.00195zM39.8232 291.278l8.40234 10.2031
c-3.02246 -5.71777 -5.84375 -11.5508 -8.40234 -17.5322v7.3291z" />
    <glyph glyph-name="uniF13C" unicode="&#xf13c;" 
d="M308.205 447.596c16.6318 -3.40527 32.501 -8.31055 47.6211 -14.5488c15.6797 -6.42871 30.418 -14.3574 44.4062 -23.6201c6.23926 -4.15527 7.94141 -12.4766 3.77441 -18.5127c-0.571289 -0.75 -0.94043 -1.51172 -1.70215 -2.08398
c-6.42871 -6.98828 -9.63184 -15.8691 -9.63184 -24.751c0.19043 -9.07129 3.77441 -17.9531 10.584 -24.9414c6.79785 -6.79785 15.8701 -10.3936 24.751 -10.3936c9.07227 -0.19043 18.1436 3.21484 25.1318 9.82227c5.28613 5.10742 13.7988 4.72656 18.7041 -0.571289
c0.571289 -0.571289 1.13086 -1.13086 1.51172 -1.70312v0c9.26172 -13.9883 17.1914 -28.918 23.8105 -44.4062c6.23828 -15.3105 11.1436 -31.5615 14.5479 -48.1924c1.5127 -7.17969 -3.21387 -14.168 -10.3926 -15.6797
c-0.75 -0.19043 -1.5127 -0.19043 -2.2627 -0.19043v0c-9.64258 -0.380859 -18.334 -4.3457 -24.751 -10.9648c-6.23828 -6.42871 -10.0127 -15.1201 -10.0127 -24.9414c0 -9.64355 3.77441 -18.5127 10.0127 -24.9424c6.42871 -6.42871 15.1201 -10.583 24.751 -10.7734
c7.37012 -0.191406 13.0371 -6.23926 12.8457 -13.6084c0 -0.94043 0 -1.89258 -0.19043 -2.83301c-3.4043 -16.6318 -8.30957 -32.502 -14.5479 -47.6211c-6.61914 -15.6797 -14.5488 -30.4189 -23.8105 -44.4072c-3.96484 -6.23828 -12.2861 -7.75 -18.334 -3.77441
c-0.75 0.572266 -1.5127 1.13184 -2.08398 1.70312c-6.98828 6.42871 -16.0605 9.64258 -24.9414 9.64258c-8.88184 -0.19043 -17.9531 -3.59473 -24.751 -10.583c-6.79785 -6.79785 -10.3936 -15.8701 -10.584 -24.751c0 -9.07227 3.21484 -18.1445 9.82227 -25.1328
c5.10742 -5.28613 4.91602 -13.6074 -0.381836 -18.7031c-0.571289 -0.571289 -1.13086 -1.13086 -1.89258 -1.51172v0c-13.9883 -9.2627 -28.7275 -17.1914 -44.4072 -23.6201c-15.3096 -6.42871 -31.3701 -11.334 -48.1807 -14.7393
c-7.17871 -1.32129 -14.167 3.21484 -15.5 10.3936c-0.19043 0.75 -0.381836 1.51172 -0.381836 2.26172v0c-0.19043 9.64355 -4.34473 18.5254 -10.7734 24.752c-6.42969 6.23828 -15.3105 10.0117 -24.9424 10.0117c-9.82129 0 -18.5127 -3.77344 -24.9414 -10.0117
c-6.42871 -6.23926 -10.584 -15.1201 -10.7744 -24.752c-0.19043 -7.17871 -6.23828 -13.0361 -13.6074 -12.8457c-0.94043 0 -1.89355 0.19043 -2.83398 0.380859c-16.6318 3.40527 -32.501 8.13184 -47.6211 14.5488c-15.6787 6.42871 -30.6084 14.3574 -44.4062 23.6201
c-6.23828 4.15527 -7.94141 12.2861 -3.77441 18.5244c0.380859 0.75 0.94043 1.32129 1.51172 1.89355c6.62012 6.98828 9.82227 16.0596 9.63184 24.9414c0 8.88086 -3.5957 17.9531 -10.3936 24.751c-6.98828 6.98828 -15.8701 10.3936 -24.751 10.584
c-9.07227 0 -18.1436 -3.21484 -25.1318 -9.82227c-5.28613 -5.10742 -13.7988 -4.91699 -18.8945 0.380859c-0.571289 0.571289 -0.94043 1.32129 -1.32129 1.89355v0c-9.26172 13.9883 -17.3818 28.7275 -23.8105 44.4062c0 0.19043 -0.19043 0.380859 -0.19043 0.75
c-6.23828 15.1201 -11.1436 30.9902 -14.3574 47.4307c-1.5127 7.17969 3.21387 14.168 10.3926 15.6797c0.750977 0 1.5127 0.19043 2.2627 0.19043v0c9.63086 0.19043 18.334 4.3457 24.5605 10.7744c6.42871 6.42871 10.2031 15.3105 10.2031 24.9414
c0 9.82227 -3.77441 18.5244 -10.2031 24.9414c-6.23828 6.62012 -14.9297 10.584 -24.5605 10.9648c-7.36914 0 -13.2266 6.23828 -13.0361 13.418c0 1.13086 0.19043 1.89258 0.380859 2.83301c3.4043 16.6318 8.30957 32.502 14.5479 47.8115
c6.42871 15.501 14.5488 30.4189 23.8105 44.4072c3.96484 6.04785 12.2861 7.75 18.334 3.77344c0.75 -0.571289 1.5127 -1.13086 2.08398 -1.70215c6.98828 -6.61914 15.8701 -9.82129 24.9414 -9.64355c8.88184 0 17.7627 3.5957 24.751 10.3936
c6.79785 6.98828 10.3936 15.8701 10.3936 24.9414c0.19043 8.88184 -3.02344 17.9541 -9.82227 24.9424c-4.89258 5.28516 -4.70215 13.7861 0.583984 18.8936c0.571289 0.571289 1.13086 0.94043 1.89258 1.51172v0c13.7988 9.2627 28.7275 17.1914 44.4072 23.6201
c15.1191 6.23828 31.3701 11.334 48.1807 14.5488c7.17871 1.51172 14.167 -3.21484 15.501 -10.3936c0.19043 -0.75 0.19043 -1.5127 0.380859 -2.2627v0c0.19043 -9.63086 4.3457 -18.334 10.7744 -24.5605c6.42871 -6.23828 15.1191 -10.2021 24.9414 -10.2021
c9.63184 0 18.5127 3.96387 24.9414 10.2021s10.584 14.9297 10.7744 24.5605c0.19043 7.37012 6.23828 13.2275 13.6074 13.0371c0.928711 0 1.88184 -0.19043 2.82227 -0.380859v0zM256.048 318.91c34.9541 0 66.7051 -14.167 89.7539 -37.2275
c22.8701 -22.8701 37.0371 -54.6094 37.0371 -89.7539c0 -34.9541 -14.167 -66.7061 -37.0371 -89.7539c-23.0488 -22.8701 -54.7998 -37.0381 -89.7539 -37.0381c-35.1445 0 -66.7061 14.168 -89.7549 37.0381c-22.8701 23.0479 -37.2275 54.7998 -37.2275 89.7539
c0 35.1445 14.3574 66.8955 37.2275 89.7539c23.0488 23.0605 54.6104 37.2275 89.7549 37.2275v0zM326.908 262.789c-18.1436 18.1436 -43.2764 29.4775 -70.8604 29.4775c-27.7754 0 -52.7168 -11.334 -70.8604 -29.4775s-29.2871 -43.085 -29.2871 -70.8604
c0 -27.585 11.1436 -52.7168 29.2871 -70.8604s43.085 -29.2871 70.8604 -29.2871c27.584 0 52.7168 11.1436 70.8604 29.2871s29.2871 43.2754 29.2871 70.8604c0 27.7754 -11.1436 52.7168 -29.2871 70.8604v0zM345.623 408.486
c-9.64355 3.96484 -19.6553 7.36914 -29.668 10.0127c-3.02344 -10.3936 -8.88086 -19.8467 -16.4414 -27.2158c-11.1436 -10.9648 -26.6436 -17.7627 -43.4658 -17.7627c-17.0127 0 -32.3115 6.79785 -43.4668 17.7627c-7.75 7.36914 -13.417 16.8223 -16.4414 27.2158
c-10.2021 -2.64355 -20.0244 -6.04785 -29.668 -10.0127c-9.82129 -4.15527 -19.2744 -8.69141 -28.3467 -13.9893c5.28613 -9.64258 7.94141 -20.2148 7.75098 -30.7988c-0.19043 -15.6787 -6.23828 -31.3701 -18.1436 -43.2754
c-12.0957 -12.0957 -27.585 -18.1436 -43.4668 -18.334c-10.584 -0.19043 -21.167 2.45215 -30.7988 7.75c-5.28613 -9.07227 -9.82227 -18.5127 -13.9883 -28.3467c-3.96484 -9.64355 -7.37012 -19.4648 -10.0127 -29.668
c10.584 -3.02441 19.8457 -8.69043 27.2158 -16.251c10.9648 -11.334 17.7627 -26.6436 17.7627 -43.6562c0 -16.8223 -6.79785 -32.1211 -17.7627 -43.4668c-7.37012 -7.55957 -16.6318 -13.2266 -27.2158 -16.4414c2.64258 -9.82129 5.85742 -19.6553 9.82129 -28.918
c0 -0.380859 0.191406 -0.571289 0.191406 -0.75c4.1543 -9.82129 8.69043 -19.084 13.9883 -28.1562c9.63184 5.28613 20.2148 7.75098 30.7988 7.56055c15.8701 -0.19043 31.3711 -6.23828 43.4668 -18.1436c11.9053 -11.9053 17.9531 -27.585 18.1436 -43.2764
c0.19043 -10.584 -2.45215 -21.3584 -7.75098 -30.7988c9.07227 -5.28613 18.5137 -10.0127 28.3467 -13.9893c9.63184 -3.96387 19.4658 -7.36914 29.668 -10.2021c3.02441 10.584 8.69141 20.0244 16.4414 27.4062c11.1436 10.9639 26.4541 17.7627 43.4668 17.7627
c16.8223 0 32.3105 -6.79883 43.4658 -17.7627c7.56055 -7.37012 13.418 -16.8223 16.4414 -27.4062c10.0127 2.83301 20.0244 6.23828 29.668 10.2021c9.82227 3.96484 19.2744 8.69141 28.1562 13.9893c-5.10742 9.45312 -7.75 20.2148 -7.55957 30.7988
c0.19043 15.6797 6.23828 31.3711 18.1436 43.2764s27.584 17.9531 43.2754 18.1436c10.7744 0.19043 21.3584 -2.2627 30.7988 -7.56055c5.28613 9.07227 10.0127 18.335 14.168 28.1562c3.96387 9.64355 7.36914 19.6562 10.0117 29.668
c-10.583 3.02441 -19.8457 8.88184 -27.3936 16.4414c-10.9648 11.334 -17.5723 26.6445 -17.5723 43.4668c0 17.0127 6.61914 32.3105 17.5723 43.6562c7.55957 7.56055 16.8223 13.2266 27.3936 16.251c-2.64258 10.2031 -6.04785 20.0244 -10.0117 29.8584
c-4.15527 9.64355 -8.88184 19.084 -14.168 28.1562c-9.45215 -5.28613 -20.0244 -7.94043 -30.7988 -7.75c-15.6787 0.19043 -31.3701 6.23828 -43.2754 18.334c-11.9053 11.9053 -17.9531 27.584 -18.1436 43.2754c-0.19043 10.584 2.45215 21.168 7.55957 30.7988
c-8.88184 5.28613 -18.334 10.0127 -28.1562 13.9893v0z" />
    <glyph glyph-name="uniF14C" unicode="&#xf14c;" 
d="M482.179 236.242c16.4424 0 29.8213 -13.8438 29.8066 -30.8525v-22.6631c0 -17.0098 -13.3721 -30.8535 -29.8145 -30.8535h-11.666v-28.1807c0 -17.0088 -13.8438 -30.8525 -30.8525 -30.8525h-20.7686v-21.0088c0 -17.0088 -13.8438 -30.8525 -30.8525 -30.8525
h-22.9043c-17.0088 0 -30.8525 13.8438 -30.8525 30.8525v79.9268h-156.571v-79.9268c0 -17.0088 -13.8438 -30.8525 -30.8525 -30.8525h-22.9033c-17.0088 0 -30.8525 13.8438 -30.8525 30.8525v11.3027h-20.7617c-17.0088 0 -30.8525 13.8438 -30.8525 30.8525v33.7715
h-11.666c-16.4355 0 -29.8145 13.8438 -29.8145 30.8525v22.6631c0 17.0098 13.3789 30.8535 29.8145 30.8457h11.6729v28.1885c0 17.0088 13.8438 30.8525 30.8525 30.8525h20.7627v21.0088c0 17.0088 13.8438 30.8525 30.8525 30.8525h22.9033
c17.0088 0 30.8525 -13.8438 30.8525 -30.8525v-75.8027h156.571v75.8027c0 17.0088 13.8438 30.8525 30.8525 30.8525h22.9033c17.0088 0 30.8525 -13.8438 30.8525 -30.8525v-11.3027h20.7695c17.0088 0 30.8525 -13.8438 30.8525 -30.8525v-33.7715h11.666z
M29.8145 165.906h11.666v48.0713h-11.666c-6.43164 0 -11.666 -5.69824 -11.666 -12.7041v-22.6631c0 -7.00586 5.23438 -12.7041 11.666 -12.7041zM72.3398 101.282v0.0078125h20.7627v171.729h-20.7627c-7.00488 0 -12.7041 -5.69824 -12.7041 -12.7041v-146.328
c0 -7.00488 5.69922 -12.7041 12.7041 -12.7041zM159.562 71.8311v240.338c0 7.00488 -5.69922 12.7041 -12.7041 12.7041h-22.9033c-7.00586 0 -12.7041 -5.69922 -12.7041 -12.7041v-240.338c0 -7.00488 5.69824 -12.7041 12.7041 -12.7041h22.9033
c7.00488 0 12.7041 5.69922 12.7041 12.7041zM177.711 169.906h156.571v48.3115h-156.571v-48.3115zM400.742 71.8311v240.338c0 7.00488 -5.69922 12.7041 -12.7041 12.7041h-22.9033c-7.00586 0 -12.7041 -5.69922 -12.7041 -12.7041v-240.338
c0 -7.00488 5.69824 -12.7041 12.7041 -12.7041h22.9033c7.00488 0 12.7041 5.69922 12.7041 12.7041zM452.364 123.692v146.321c0 7.00488 -5.69922 12.7041 -12.7041 12.7041h-20.7695v-171.729h20.7695c7.00488 0 12.7041 5.69922 12.7041 12.7041zM493.852 182.727
v22.6631c0 7.00586 -5.23438 12.7041 -11.666 12.7041h-11.666v-48.0713h11.666c6.43164 0 11.666 5.69824 11.666 12.7041z" />
    <glyph glyph-name="uniF165" unicode="&#xf165;" 
d="M256 448c141.16 0 256 -114.842 256 -256s-114.842 -256 -256 -256s-256 114.842 -256 256s114.842 256 256 256zM256 -36.3242c125.898 0 228.324 102.426 228.324 228.324c0 35.2217 -8.02148 68.6035 -22.3262 98.4229
c-12.5732 26.209 -30.0117 49.6582 -51.1279 69.1836c-40.7285 37.6631 -95.1543 60.7178 -154.87 60.7178c-125.898 0 -228.324 -102.426 -228.324 -228.324c0 -38.1396 9.41406 -74.1182 26.0176 -105.754c10.9023 -20.7744 24.9053 -39.6768 41.3994 -56.0781
c41.3066 -41.0713 98.1914 -66.4922 160.907 -66.4922zM168.495 250.116c-14.874 0 -26.9785 -11.4111 -26.9785 -26.9785h-27.6768c0 31.1348 24.5176 54.6543 54.6553 54.6543s54.6553 -23.5195 54.6553 -54.6543h-27.6758c0 15.5674 -12.1035 26.9785 -26.9795 26.9785z
M343.501 250.116c-14.876 0 -26.9785 -11.4111 -26.9785 -26.9785h-27.6758c0 31.1348 24.5176 54.6543 54.6543 54.6543c30.1377 0 54.6553 -23.5195 54.6553 -54.6543h-27.6758c0 15.5674 -12.1035 26.9785 -26.9795 26.9785zM255.511 50.165
c-5.95898 0 -11.9375 0.337891 -17.9238 1.0293c-46.6338 5.37793 -89.75 32.2236 -115.333 71.8164l23.2441 15.0205c21.1426 -32.7178 56.7529 -54.9033 95.2607 -59.3438c49.4004 -5.70312 98.7637 17.5967 125.741 59.3438l23.2461 -15.0205
c-29.3799 -45.4629 -80.6924 -72.8457 -134.235 -72.8457z" />
    <glyph glyph-name="uniF1C5" unicode="&#xf1c5;" 
d="M314.448 237.608c5.63477 5.63379 14.6709 5.63379 20.1992 0c5.63477 -5.63477 5.63477 -14.6719 0 -20.3057l-96.4248 -96.4258c-2.76465 -2.87012 -6.48535 -4.25195 -10.0996 -4.25195c-3.61523 0 -7.33594 1.48828 -10.0996 4.25195l-40.8242 40.8242
c-5.63477 5.63477 -5.63477 14.6709 0 20.3057s14.6709 5.63477 20.3057 0l30.6182 -30.7246zM477.744 277.688l0.106445 -24.5576v-1.38281v-0.849609l-0.532227 -69.21v-0.424805c-0.105469 -8.18652 -0.318359 -15.5215 -0.637695 -22.4326
c-1.59473 -34.7637 -14.0332 -67.6143 -38.166 -100.358c-27.4287 -37.209 -64.8506 -68.04 -114.498 -94.2988c-14.9902 -7.86719 -30.5117 -14.5645 -45.6084 -21.0498c-3.61426 -1.59473 -7.22852 -3.08301 -10.8438 -4.67773
c-3.50781 -1.59473 -7.76074 -2.44531 -11.8008 -2.44531c-3.29492 0 -6.48438 0.53125 -9.24902 1.59473c-61.4482 23.1758 -110.14 53.4746 -148.943 92.5977c-30.5117 30.7246 -49.3291 63.1494 -57.5146 98.9775c-3.50879 15.415 -5.42188 30.6172 -5.52832 45.2891
c-0.425781 41.6738 -0.425781 84.0928 -0.319336 125.022v44.333c0 18.2852 7.76074 26.5771 25.7275 27.7471c58.791 3.61426 115.349 25.5146 177.86 68.6777c5.9541 4.14648 11.1631 7.76074 18.2861 7.76074s12.1191 -3.50781 18.3916 -7.86719
c46.7773 -32.5312 88.9834 -52.1992 132.997 -61.874c11.2686 -2.55078 22.8574 -3.93359 35.1895 -5.31543c3.93359 -0.53125 7.97363 -0.957031 12.0127 -1.48828c19.0303 -2.44531 23.0703 -15.3086 23.0703 -25.6211v-68.1465zM449.04 254.512v24.2393v64.5312
c-3.18945 0.425781 -6.37891 0.744141 -9.6748 1.16992c-12.4385 1.48828 -25.3027 2.97656 -38.0596 5.74023c-47.0967 10.4189 -93.9805 32.1064 -143.203 66.4453c-0.637695 0.425781 -1.38184 0.957031 -2.01953 1.38184
c-0.744141 -0.53125 -1.48828 -0.956055 -2.02051 -1.38184c-66.5508 -45.9268 -127.255 -69.3154 -191.043 -73.5684v-43.5879c0 -40.9297 -0.106445 -83.1357 0.319336 -124.704c0.106445 -12.5449 1.70117 -25.7275 4.78418 -39.123
c6.91016 -30.5117 23.2822 -58.3652 49.8604 -85.2627c35.6143 -36.0391 80.7969 -64 137.993 -85.6875h0.319336c3.61426 1.59473 7.22852 3.08301 10.8438 4.67773c14.458 6.27246 29.5547 12.7578 43.4814 20.0928c45.7139 24.1338 79.9473 52.3057 104.824 86.0068
c20.624 28.0664 31.2559 55.708 32.5312 84.5186c0.212891 6.69727 0.424805 13.8203 0.53125 21.9004v0.319336v2.12598l0.532227 67.5078v0.638672v1.91309v0.106445z" />
    <glyph glyph-name="uniF102" unicode="&#xf102;" 
d="M256 -63.9883c-141.165 0 -256 114.835 -256 255.977c0 141.153 114.835 256 256 256s256 -114.835 256 -256s-114.858 -255.977 -256 -255.977zM256 430.628c-131.582 0 -238.64 -107.058 -238.64 -238.64s107.058 -238.64 238.64 -238.64s238.64 107.058 238.64 238.64
s-107.058 238.64 -238.64 238.64zM363.81 183.319h-215.607c-4.79199 0 -8.68066 3.88867 -8.68066 8.68066s3.88867 8.68066 8.68066 8.68066h215.596c4.79199 0 8.68066 -3.88867 8.68066 -8.68066s-3.87695 -8.68066 -8.66895 -8.68066zM256 75.5215
c-4.79199 0 -8.68066 3.88867 -8.68066 8.68066v215.584c0 4.79199 3.88867 8.68066 8.68066 8.68066s8.68066 -3.88867 8.68066 -8.68066v-215.572c0 -4.80371 -3.88867 -8.69238 -8.68066 -8.69238z" />
    <glyph glyph-name="uniF151" unicode="&#xf151;" 
d="M506.719 246.678c0.000976562 -66.9697 -26.0781 -129.931 -73.4346 -177.286c-26.3174 -26.3193 -57.4609 -46.0537 -91.4307 -58.4043c12.3701 -17.5596 19.1992 -38.6738 19.1992 -60.5127c0 -7.99512 -6.48145 -14.4756 -14.4756 -14.4756h-181.165
c-7.99414 0 -14.4756 6.48047 -14.4756 14.4756c0 21.8398 6.83008 42.9551 19.2021 60.5156c-33.9658 12.3506 -65.1074 32.085 -91.4248 58.4014c-47.3535 47.3555 -73.4326 110.316 -73.4326 177.286c0 7.99512 6.48145 14.4756 14.4756 14.4756h32.54
c-3.8623 24.8164 -2.67676 50.7822 3.59473 73.4971c8.94531 32.4072 27.2139 55.1855 51.4404 64.1377c20.209 7.4834 43.5869 4.93262 66.9971 -7.0752c23.2305 35.959 54.1924 56.2871 86.5303 56.2871c27.6787 0 54.2197 -14.7227 76.0684 -41.8223
c24.7871 10.8486 49.1221 12.1514 69.5518 3.50195c25.0664 -10.6182 43.2393 -35.5176 51.1719 -70.1113c5.60254 -24.4375 5.6416 -52.1533 0.351562 -78.415h34.2402c7.99414 0 14.4756 -6.48047 14.4756 -14.4756zM395.188 383.021
c-11.7314 4.96582 -26.1982 4.41406 -41.7148 -1.37109c17.3447 -30.7109 27.1514 -67.2998 27.1514 -102.124c0 -6.26562 -0.332031 -12.4023 -0.985352 -18.373h48.751c12.8652 53.168 -1.58203 108.474 -33.2021 121.868zM260.859 419.049
c-24.6953 0 -50.3818 -20.1895 -68.7061 -54.0078c-14.0498 -25.9248 -22.1074 -57.0938 -22.1074 -85.5146c0 -6.33887 0.40625 -12.4795 1.2002 -18.373h179.227c0.793945 5.89355 1.20117 12.0342 1.20117 18.373c0 32.7451 -10.6602 68.7588 -28.5156 96.3379
c-17.7686 27.4443 -40.4756 43.1846 -62.2988 43.1846zM83.7998 326.947c-5.58496 -20.2305 -6.28418 -43.6719 -2.1416 -65.7939h60.4199c-0.652344 5.9707 -0.985352 12.1074 -0.985352 18.373c0 29.0576 6.82324 59.3809 19.3613 86.7686
c-15.8105 7.96582 -30.8047 9.88574 -43.0762 5.34082c-20.583 -7.60645 -29.873 -31.2627 -33.5781 -44.6885zM477.301 232.202h-442.598c0.18457 -2.84473 0.438477 -5.66797 0.728516 -8.48145c15.7139 -2.09277 25.5176 -7.94336 33.7002 -12.8359
c8.90039 -5.32422 15.9316 -9.5293 31.2979 -9.5293c15.3672 0 22.3975 4.20508 31.2988 9.5293c10.1562 6.07324 22.7959 13.6328 46.1582 13.6328s36.0029 -7.55957 46.1592 -13.6328c8.90137 -5.32422 15.9336 -9.5293 31.3008 -9.5293s22.3994 4.20508 31.3027 9.5293
c10.1562 6.07324 22.7969 13.6328 46.1602 13.6328c23.3623 0 36.0039 -7.55957 46.1611 -13.6318c8.90332 -5.3252 15.9355 -9.53027 31.3047 -9.53027c15.3682 0 22.4014 4.20703 31.3047 9.53027c8.40527 5.02539 18.5312 11.0557 35.0078 12.9912
c0.283203 2.76172 0.532227 5.53418 0.712891 8.3252zM330.711 -35.0488c-2.69336 13.8691 -9.22559 26.7793 -18.8848 37.2148c-18.1084 -4.09766 -36.8037 -6.20801 -55.8252 -6.20801c-19.0234 0 -37.7227 2.11133 -55.833 6.20996
c-9.66113 -10.4365 -16.1934 -23.3467 -18.8867 -37.2168h149.43zM256 24.9102c103.894 0 191.316 71.8262 215.262 168.421c-5.52539 -1.7373 -9.89062 -4.3418 -14.8271 -7.29395c-10.1562 -6.07422 -22.7988 -13.6328 -46.1631 -13.6328
c-23.3633 0 -36.0049 7.55859 -46.1621 13.6328c-8.90332 5.32324 -15.9365 9.52832 -31.3037 9.52832s-22.3994 -4.20508 -31.3018 -9.52832c-10.1562 -6.07422 -22.7979 -13.6328 -46.1602 -13.6328c-23.3633 0 -36.0029 7.55859 -46.1592 13.6328
c-8.90234 5.32324 -15.9336 9.52832 -31.3018 9.52832c-15.3643 0 -22.3955 -4.20508 -31.2969 -9.52832c-10.1562 -6.07422 -22.7959 -13.6328 -46.1592 -13.6328c-23.3613 0 -36.002 7.55859 -46.1582 13.6328c-4.50781 2.69727 -8.54199 5.10352 -13.416 6.82422
c24.1152 -96.3584 111.423 -167.951 215.147 -167.951zM304.352 165.328c15.1973 6.59863 32.5928 3.29102 44.3057 -8.42676c7.57129 -7.57129 11.7412 -17.6377 11.7412 -28.3457c0 -10.707 -4.16992 -20.7744 -11.7412 -28.3457
c-7.70996 -7.70996 -17.8789 -11.7793 -28.2637 -11.7793c-5.39551 0 -10.8457 1.09766 -16.0439 3.35352l-25.7822 11.1924l9.80371 -33.501c2.24512 -7.67383 -2.1543 -15.7139 -9.82715 -17.959c-1.35742 -0.397461 -2.72656 -0.585938 -4.07324 -0.585938
c-6.26367 -0.00195312 -12.0361 4.09668 -13.8857 10.4131l-4.58594 15.6729l-4.58691 -15.6729c-2.24707 -7.67383 -10.292 -12.0723 -17.959 -9.82715c-7.67383 2.24512 -12.0723 10.2871 -9.82812 17.959l9.80469 33.501l-25.7832 -11.1924
c-5.19531 -2.25586 -10.6494 -3.35352 -16.0439 -3.35352c-10.3838 0 -20.5518 4.06836 -28.2637 11.7793c-7.57129 7.57129 -11.7412 17.6387 -11.7412 28.3457c0 10.709 4.16992 20.7744 11.7412 28.3457c11.7178 11.7188 29.1104 15.0244 44.3096 8.42676
l48.3516 -20.9902zM196.119 118.342l23.5283 10.2139l-23.5283 10.2139c-1.44336 0.626953 -2.95898 0.931641 -4.45703 0.931641c-2.88477 0 -5.70801 -1.12891 -7.85059 -3.27148c-2.10352 -2.10352 -3.26074 -4.89941 -3.26074 -7.87402
c0 -2.97363 1.15723 -5.77051 3.26074 -7.87305c3.25488 -3.25586 8.08496 -4.17285 12.3076 -2.34082zM328.188 120.683c2.10352 2.10254 3.26074 4.89941 3.26074 7.87305c0 2.97461 -1.15723 5.77051 -3.26074 7.87402
c-3.25391 3.25391 -8.08301 4.17188 -12.3076 2.33984l-23.5283 -10.2139l23.5283 -10.2139c4.2207 -1.83203 9.05273 -0.915039 12.3076 2.34082z" />
    <glyph glyph-name="uniF1B6" unicode="&#xf1b6;" 
d="M255.845 345.978c59.0771 0 107.051 -48.1836 107.051 -107.156c0 -58.9717 -47.9736 -107.051 -107.051 -107.051s-107.051 48.1836 -107.051 107.156c0 58.9717 47.9736 107.051 107.051 107.051zM255.845 157.434c44.9365 0 81.3877 36.5566 81.3877 81.3877
c0 44.832 -36.5557 81.3887 -81.3877 81.3887c-44.8311 0 -81.3877 -36.5566 -81.3877 -81.3887c0 -44.8311 36.4521 -81.3877 81.3877 -81.3877zM255.845 448c114.069 0 206.874 -92.8057 207.084 -206.77c0 -13.1973 -1.25684 -26.3955 -3.77148 -39.2793
c-0.313477 -1.99023 -0.732422 -4.08496 -1.36133 -6.59961c-3.14258 -14.0361 -7.85645 -27.8623 -13.9316 -40.9551c-21.1582 -49.9648 -67.7705 -127.687 -168.851 -211.588c-5.3418 -4.39941 -12.0459 -6.80859 -18.959 -6.80859s-13.6172 2.40918 -18.959 6.80859
c-101.186 84.0068 -147.798 161.623 -169.061 212.007c-5.9707 12.7783 -10.6846 26.5 -13.8271 40.6416c-1.15234 4.50391 -1.46582 6.91309 -1.46582 6.91309c-3.66602 19.0635 -4.60938 39.0703 -2.72363 58.9717c9.8457 102.757 95.2139 182.992 198.494 186.554
c2.40918 0.104492 4.92285 0.104492 7.33203 0.104492zM433.704 206.351c2.2002 11.7314 3.35156 23.2529 3.35156 34.7754c0 102.128 -84.8438 184.668 -187.601 181.106c-90.5 -3.14258 -165.185 -73.4268 -173.879 -163.404
c-1.67578 -17.3877 -0.837891 -34.9854 2.40918 -52.0586c0 -0.209961 0.105469 -0.418945 0.105469 -0.628906c0.104492 -0.523438 0.418945 -2.19922 1.04688 -4.92285c2.82812 -12.4648 6.91309 -24.5107 12.2559 -36.0332
c20.3203 -48.0781 64.8379 -121.925 161.938 -202.579c0.942383 -0.733398 1.99023 -0.942383 2.61914 -0.942383c0.732422 0 1.67578 0.208984 2.61816 0.942383c97.0996 80.5498 141.513 154.396 161.729 202.16c5.44629 11.9414 9.53125 23.9873 12.3604 36.3477
c0.732422 3.24707 1.04688 5.02734 1.04688 5.2373z" />
    <glyph glyph-name="uniF12C" unicode="&#xf12c;" 
d="M436.857 372.986c48.3857 -48.3857 75.1221 -112.575 75.1221 -180.986s-26.6279 -132.601 -75.0137 -180.986c-49.3604 -49.3594 -114.957 -75.0137 -181.203 -75.0137c-41.2412 0 -82.8076 9.95898 -120.802 30.417
c-34.0967 -24.5713 -67.4365 -29.876 -90.0596 -29.876c-8.44336 0 -15.3711 0.757812 -20.2422 1.51562c-10.3916 1.62402 -18.4014 9.74219 -20.0254 20.1338c-1.62305 10.3916 3.68066 20.458 13.0977 25.1123c19.5928 9.63477 32.7988 28.9023 41.0254 45.4639
c-83.8906 100.992 -77.3955 250.695 16.1279 344.22c48.3857 48.3857 112.575 75.0137 180.986 75.0137s132.601 -26.6279 180.986 -75.0137zM416.183 31.6885c88.4365 88.4365 88.4365 232.187 -0.108398 320.623c-88.3281 88.4365 -232.187 88.4365 -320.622 0
c-84.6484 -84.6484 -88.7617 -221.037 -9.52637 -310.556c2.05664 -2.38184 3.24805 -5.30469 3.57227 -8.22656c0.757812 -3.03125 0.541016 -6.27832 -0.757812 -9.41797c-8.11816 -18.5098 -21.9736 -42.3232 -43.9473 -58.3438h0.108398
c19.0508 0 47.8438 4.7627 77.1787 27.4941c0.324219 0.325195 0.757812 0.649414 1.19043 0.866211c4.65527 4.6543 11.9072 5.73633 17.7529 2.27246c88.9775 -52.2822 202.094 -37.7773 275.159 35.2881zM237.902 192c0 11.9792 5.98958 17.9688 17.9688 17.9688
c11.9792 0 17.9688 -5.98958 17.9688 -17.9688s-5.98959 -17.9688 -17.9688 -17.9688c-11.9792 0 -17.9688 5.98958 -17.9688 17.9688zM330.561 192c0 11.9792 5.98959 17.9688 17.9688 17.9688s17.9688 -5.98958 17.9688 -17.9688s-5.98959 -17.9688 -17.9688 -17.9688
s-17.9688 5.98958 -17.9688 17.9688zM145.244 192c0 11.9792 5.98958 17.9688 17.9688 17.9688s17.9688 -5.98958 17.9688 -17.9688s-5.98958 -17.9688 -17.9688 -17.9688s-17.9688 5.98958 -17.9688 17.9688z" />
    <glyph glyph-name="uniF146" unicode="&#xf146;" 
d="M452.792 428.688c9.40918 0 17.0381 -7.62793 17.0381 -17.0391v-93.1406c0 -64.2119 -34.7539 -100.062 -97.9385 -101.317c-5.93945 -14.6855 -13.7178 -28.0479 -23.2451 -39.5654c-13.376 -16.167 -29.5635 -28.2637 -47.4941 -35.7949v-87.416h67.3018
c9.40918 0 17.0371 -7.62793 17.0371 -17.0391v-84.3389c0 -9.40918 -7.62793 -17.0391 -17.0371 -17.0391h-224.906c-9.40918 0 -17.0391 7.62988 -17.0391 17.0391v84.3389c0 9.41113 7.62988 17.0391 17.0391 17.0391h67.3018v87.416
c-17.9326 7.53125 -34.1182 19.6279 -47.4941 35.7949c-9.52832 11.5176 -17.3066 24.8779 -23.2451 39.5654c-63.1865 1.25488 -97.9404 37.1074 -97.9404 101.317v93.1406c0 9.41113 7.62891 17.0391 17.0381 17.0391h67.3008v2.27246
c0 9.40918 7.62988 17.0391 17.0391 17.0391h224.904c9.40918 0 17.0371 -7.62988 17.0371 -17.0391v-2.27246h67.3027zM76.2471 318.509c0 -41.7637 16.7266 -62.7539 53.7871 -66.625c-2.31348 12.3447 -3.52539 25.2441 -3.52539 38.5117v104.217h-50.2617v-76.1035z
M351.415 20.3408h-190.83v-50.2627h190.83v50.2627zM267.076 54.415v78.9326c-3.66016 -0.342773 -7.34766 -0.556641 -11.0762 -0.556641s-7.41602 0.213867 -11.0762 0.556641v-78.9326h22.1523zM256 166.869c55.2861 0 95.415 51.9492 95.4131 123.526v123.526h-190.828
v-123.526c0 -71.5771 40.1289 -123.526 95.415 -123.526zM435.753 318.509v76.1035h-50.2637v-104.217c0 -13.2676 -1.20996 -26.167 -3.52344 -38.5117c37.0605 3.87305 53.7871 24.8613 53.7871 66.625z" />
    <glyph glyph-name="uniF172" unicode="&#xf172;" 
d="M511.982 167.464l-74.6895 -37.3535v26.4385h-92.4287l-34.1553 38.8359l-70.6348 -100.002l-45.0176 152.005l-30.208 -213.314l-56.2178 160.312l-22.1865 -37.8359h-86.4443v21.8477h73.9395l39.6934 67.8477l42.1592 -120.278l31.7266 223.979l60.7021 -205.114
l60.5938 85.8184l45.9463 -52.252h82.5322v26.3848z" />
    <glyph glyph-name="uniF1B5" unicode="&#xf1b5;" 
d="M257.669 335.795c36.083 0 65.4531 -29.3691 65.4531 -65.4521c0 -36.084 -29.3701 -65.4531 -65.4531 -65.4531s-65.4531 29.3691 -65.4531 65.4531c0 36.083 29.3701 65.4521 65.4531 65.4521zM257.669 223.59c25.7793 0 46.752 20.9736 46.752 46.7529
c0 25.7783 -20.9727 46.752 -46.752 46.752s-46.752 -20.9736 -46.752 -46.752c0 -25.7793 20.9727 -46.7529 46.752 -46.7529zM382.806 395.479c62.6758 -62.666 70.4648 -180.575 16.6533 -252.302l-143.445 -207.177l-143.659 207.467
c-53.5967 71.4365 -45.8076 189.346 16.8682 252.012c33.8672 33.8672 78.8896 52.5215 126.791 52.5215c47.8936 0 92.9248 -18.6543 126.792 -52.5215zM384.292 154.107c48.8281 65.1064 41.8623 171.589 -14.708 228.15c-30.3418 30.332 -70.6699 47.041 -113.57 47.041
c-42.8994 0 -83.2275 -16.709 -113.561 -47.041c-56.5693 -56.5615 -63.5361 -163.044 -14.9229 -227.86l128.483 -185.54z" />
    <glyph glyph-name="uniF195" unicode="&#xf195;" 
d="M392.532 388.267c23.8945 0 42.668 -18.7734 42.668 -42.666v-366.933c0 -23.8926 -18.7725 -42.666 -42.667 -42.666h-273.065c-23.8926 0 -42.667 18.7725 -42.667 42.666v366.934c0 23.8926 18.7734 42.666 42.667 42.666h42.666v8.5332
c0 9.38672 7.67969 17.0664 17.0664 17.0664h25.5996v8.5332c0 13.6523 11.0928 25.5996 25.5996 25.5996h51.2012c14.5068 0 25.5996 -11.0928 25.5996 -25.5996v-8.53418h25.5996c9.38672 0 17.0664 -7.67969 17.0664 -17.0664v-8.5332h42.666zM179.199 396.8v-17.0674
v-42.665h153.6v42.667v17.0664h-34.1338c-5.12012 0 -8.5332 3.41309 -8.5332 8.5332v17.0664c0 4.26562 -3.41309 8.5332 -8.53223 8.5332h-51.2012c-5.11914 0 -8.53223 -3.41309 -8.53223 -8.5332v-17.0674c0 -5.12012 -3.41309 -8.5332 -8.5332 -8.5332h-34.1338z
M418.133 -21.333v366.934c0 14.5068 -11.0928 25.5996 -25.5996 25.5996h-42.666v-34.1338c0 -9.38672 -7.67969 -17.0664 -17.0664 -17.0664h-153.601c-9.38672 0 -17.0664 7.67969 -17.0664 17.0664v34.1338h-42.666c-14.5068 0 -25.5996 -11.0928 -25.5996 -25.5996
v-366.934c0 -14.5068 11.0928 -25.5996 25.5996 -25.5996h273.065c14.5068 0 25.5996 11.0928 25.5996 25.5996zM255.999 251.733c61.4404 0 110.934 -49.4932 110.934 -110.934c0 -61.4395 -49.4932 -110.933 -110.934 -110.933
c-61.4395 0 -110.933 49.4932 -110.933 110.933c0 61.4404 49.4932 110.934 110.933 110.934zM255.999 46.9336c52.0537 0 93.8672 41.8135 93.8672 93.8662c0 52.0537 -41.8135 93.8672 -93.8672 93.8672c-52.0527 0 -93.8662 -41.8135 -93.8662 -93.8672
c0 -52.0527 41.8135 -93.8662 93.8662 -93.8662zM302.933 190.294c4.26758 -2.56055 5.12012 -7.68066 2.55957 -11.9473l-51.2012 -85.333c-1.70508 -2.55957 -3.41211 -3.41406 -5.97266 -4.2666c0 0.852539 -0.852539 0.852539 -0.852539 0.852539
c-2.56055 0 -4.2666 0.853516 -5.97266 2.56055l-34.1338 34.1328c-3.41309 3.41406 -3.41309 8.53418 0 11.9473c3.41406 3.41309 8.5332 3.41309 11.9463 0l26.4541 -26.4541l45.2266 75.9473c2.55957 4.26758 7.67969 5.12012 11.9463 2.56055z" />
    <glyph glyph-name="uniF100" unicode="&#xf100;" 
d="M372.408 207.048c8.83984 0 16.0078 -7.16797 16.0078 -16s-7.16016 -16 -16 -16h-97.1445v-97.1514c0 -8.83203 -7.15918 -16 -16 -16c-8.83984 0 -16 7.16797 -16 16v97.1436h-97.1436c-8.83984 0 -16 7.16797 -16 16s7.16016 16 16 16h97.1357v97.1436
c0 8.83203 7.16016 16 16 16s16 -7.16797 16 -16v-97.1357h97.1445zM256 448c141.16 0 256 -114.84 256 -256s-114.84 -256 -256 -256s-256 114.84 -256 256s114.84 256 256 256zM256 -32c123.512 0 224 100.488 224 224s-100.488 224 -224 224s-224 -100.488 -224 -224
s100.488 -224 224 -224z" />
    <glyph glyph-name="uniF197" unicode="&#xf197;" 
d="M256 448c95.8125 0 173.764 -77.9492 173.764 -173.763c0 -38.5068 -22.668 -97.0615 -71.3379 -184.274c-33.4668 -59.9717 -66.2842 -109.804 -67.666 -111.897l-23.8926 -36.2148c-2.40918 -3.65332 -6.49023 -5.85059 -10.8672 -5.85059
s-8.45801 2.19727 -10.8672 5.85059l-23.8945 36.2168c-1.39453 2.11816 -34.4521 52.3838 -67.6641 111.896c-48.6699 87.2168 -71.3379 145.772 -71.3379 184.274c0 95.8135 77.9512 173.763 173.764 173.763zM335.688 102.652
c45.1455 80.8994 68.0361 138.628 68.0361 171.585c0 81.4561 -66.2686 147.725 -147.725 147.725s-147.726 -66.2686 -147.726 -147.725c0 -32.9531 22.8916 -90.6826 68.0371 -171.585c32.75 -58.6826 65.2969 -108.172 66.665 -110.25l13.0234 -19.7412l13.0273 19.7461
c1.36133 2.06152 33.6602 51.1113 66.6611 110.245zM256 371.665c53.123 0 96.3418 -43.2197 96.3418 -96.3418c0 -53.123 -43.2188 -96.3428 -96.3418 -96.3428s-96.3418 43.2197 -96.3418 96.3428c0 53.1221 43.2188 96.3418 96.3418 96.3418zM256 205.02
c38.7666 0 70.3037 31.5371 70.3037 70.3037c0 38.7656 -31.5371 70.3037 -70.3037 70.3037c-38.7656 0 -70.3037 -31.5381 -70.3037 -70.3037c0 -38.7666 31.5381 -70.3037 70.3037 -70.3037z" />
    <glyph glyph-name="uniF1A4" unicode="&#xf1a4;" 
d="M475.437 259.686c20.0781 0 36.458 -16.3799 36.5635 -36.8809v-58.7559c0 -20.0781 -16.3799 -36.458 -36.458 -36.458h-7.39746c-11.4131 -31.4912 -31.1748 -60.3408 -57.5938 -84.0127c-0.210938 -0.210938 -0.52832 -0.422852 -0.739258 -0.633789
l-0.211914 -0.211914c-0.950195 -0.844727 -2.00781 -1.69043 -2.95898 -2.53613c-20.3945 -18.5986 -22.1914 -40.1562 -22.2969 -44.7002v-19.2334c0 -14.0547 -11.5186 -25.5732 -25.5742 -25.5732h-78.7285c-14.0547 0 -25.5732 11.5186 -25.5732 25.5732v4.86133
c-12.3643 -0.634766 -24.7285 -0.422852 -36.9863 0.52832v-5.28418c0 -14.0547 -11.5186 -25.5732 -25.5742 -25.5732h-78.7285c-13.1035 0 -24.1992 10.0391 -25.4678 23.0371c-0.105469 0.422852 -0.105469 0.951172 -0.105469 1.47949v1.05664v5.60059
c-0.52832 11.4131 -4.22754 39.7344 -25.9961 62.1377c-15.3232 15.8516 -28.9551 36.3525 -40.2627 60.9746c-6.86914 13.4209 -12.1533 27.582 -15.7461 42.0596c-0.105469 0.422852 -0.210938 0.633789 -0.210938 0.633789
c-0.105469 0.211914 -0.211914 0.52832 -0.211914 0.740234c-3.4873 14.3721 -5.17773 29.0605 -5.17773 43.75c0 56.7471 25.1504 110.008 70.8027 149.954c45.2295 39.5225 105.147 61.292 168.87 61.292c24.7285 0 49.0342 -3.27637 72.4941 -9.72266
c13.5264 16.5908 36.9863 34.4502 76.1924 39.3115c1.05664 0.105469 2.21875 0.210938 3.38184 0.210938c9.72168 0 18.7041 -5.38867 23.46 -13.9492c4.86035 -8.66504 4.54395 -18.916 -0.740234 -27.3691c-10.25 -16.3799 -13.4209 -32.126 -9.19336 -46.8145v-0.211914
c28.2148 -23.6709 49.2451 -52.9434 61.6084 -85.2803h8.56055zM486.532 164.472h-0.105469v58.5439c0 6.12988 -4.9668 11.0967 -11.0967 11.0967h-17.3301h-0.106445c-5.49512 0 -10.3555 3.59277 -12.0469 8.77051c-10.6729 32.5488 -31.4912 62.0322 -60.2354 85.2803
c-2.95898 2.3252 -4.64941 5.8125 -4.75488 9.51172c0 0.105469 -0.106445 0.316406 -0.106445 0.421875c-6.12891 21.5586 -2.00781 44.8066 12.0479 67.21c0.210938 0.211914 0.52832 0.845703 0.105469 1.58594c-0.211914 0.421875 -0.740234 0.950195 -1.58496 0.844727
c-35.9297 -4.54395 -54.6348 -21.9805 -64.04 -35.9297c-3.16992 -4.64941 -8.98242 -6.65723 -14.3721 -4.9668c-23.46 7.39746 -48.082 11.2021 -73.3389 11.2021c-118.146 0 -214.311 -83.4844 -214.311 -185.99c0 -12.7871 1.47949 -25.6787 4.54395 -38.2549v-0.210938
s0.105469 -0.211914 0.105469 -0.317383c3.06445 -12.6807 7.82031 -25.0449 13.8438 -36.8809c0.105469 -0.105469 0.105469 -0.210938 0.210938 -0.422852c10.251 -22.0859 22.2979 -40.2617 35.7188 -54.1055c28.1094 -28.8496 32.5479 -64.7793 33.1826 -78.9404
v-0.52832v-5.91797v0c0 -0.105469 0.105469 -0.210938 0.210938 -0.210938h78.7285c0.105469 0 0.210938 0.105469 0.210938 0.210938v19.3389c0 3.59277 1.58594 7.08008 4.33301 9.51074c2.74805 2.43066 6.44629 3.59277 10.0391 3.06445
c10.8848 -1.47949 22.0869 -2.21875 33.1826 -2.21875c8.66504 0 17.4365 0.422852 26.1016 1.37402c0.52832 0.105469 0.951172 0.105469 1.37402 0.105469c3.06445 0 6.12891 -1.16211 8.4541 -3.27637c2.74805 -2.43066 4.22754 -5.81152 4.22754 -9.40527v-18.4932
c0 -0.105469 0.105469 -0.210938 0.210938 -0.210938h78.7285c0.105469 0 0.211914 0.105469 0.211914 0.210938v19.4443v0.317383c0.210938 8.4541 3.06445 38.043 30.751 63.1943c0.105469 0 0.211914 0.105469 0.317383 0.210938
c0.951172 0.845703 1.90234 1.69141 2.85352 2.53613l0.105469 0.106445l0.210938 0.210938c25.6797 22.9316 44.2783 51.2529 53.6836 81.8984c1.69043 5.38965 6.55176 8.98242 12.1533 8.98242h16.4854c6.12891 0 11.0957 4.9668 11.0957 11.0967zM253.411 204.945
c24.0938 0 43.75 -19.6562 43.9609 -43.75c0 -23.8828 -19.3389 -43.4326 -43.2217 -43.75h-0.316406h-1.79688v-17.3301c0 -6.97461 -5.70605 -12.6816 -12.6807 -12.6816s-12.6816 5.70703 -12.6816 12.6816v17.3301h-24.0938
c-6.97461 0 -12.6816 5.70703 -12.6816 12.6816s5.70703 12.6807 12.6816 12.6807h50.9355c10.1445 0 18.3877 8.24316 18.3877 18.3877c0 10.1455 -8.24316 18.3877 -18.3877 18.3877h-28.3213c-24.0938 0 -43.75 19.6562 -43.75 43.75s19.6562 43.75 43.75 43.75h1.47949
v17.0137c0 6.97461 5.70703 12.6807 12.6816 12.6807s12.6807 -5.70605 12.6807 -12.6807v-17.0137h23.1436c6.97461 0 12.6807 -5.70703 12.6807 -12.6816s-5.70605 -12.6807 -12.6807 -12.6807h-50.0908c-10.1445 0 -18.3877 -8.24316 -18.3877 -18.3877
s8.24316 -18.3877 18.3877 -18.3877h28.3213z" />
    <glyph glyph-name="uniF19C" unicode="&#xf19c;" 
d="M414.543 92.876c-2.03027 0 -4.06152 0.742188 -5.64648 2.24512l-94.9971 89.1191c-3.31836 3.10352 -3.4834 8.33789 -0.363281 11.6562c3.12109 3.35156 8.32129 3.5 11.6729 0.363281l94.9971 -89.1201c3.31836 -3.10352 3.4834 -8.33691 0.363281 -11.6553
c-1.63477 -1.7334 -3.81445 -2.6084 -6.02637 -2.6084zM97.4404 92.876c-2.19531 0 -4.3916 0.875 -6.02637 2.6084c-3.12012 3.31836 -2.95508 8.55176 0.363281 11.6553l95.0303 89.1201c3.33496 3.10352 8.56836 2.97168 11.6729 -0.363281
c3.12012 -3.31836 2.95508 -8.55273 -0.363281 -11.6562l-95.0303 -89.1191c-1.58496 -1.50293 -3.61621 -2.24512 -5.64648 -2.24512zM470.726 10.0127h-429.451c-22.751 0 -41.2744 18.5078 -41.2744 41.2744v281.441c0 22.7676 18.5234 41.2744 41.2744 41.2744h429.451
c22.751 0 41.2744 -18.5068 41.2744 -41.2744v-281.441c0 -22.7666 -18.5234 -41.2744 -41.2744 -41.2744zM41.2744 357.493c-13.6533 0 -24.7646 -11.1104 -24.7646 -24.7646v-281.441c0 -13.6533 11.1113 -24.7646 24.7646 -24.7646h429.451
c13.6533 0 24.7646 11.1113 24.7646 24.7646v281.441c0 13.6543 -11.1113 24.7646 -24.7646 24.7646h-429.451zM256 150.527c-10.9785 0 -21.958 3.64844 -30.3115 10.9297l-211.985 184.926c-3.43359 2.98828 -3.79688 8.20508 -0.808594 11.6553
c3.02051 3.43457 8.22168 3.74805 11.6553 0.792969l211.985 -184.909c10.5498 -9.19629 28.3799 -9.19629 38.9131 0l211.721 184.612c3.41797 2.9873 8.61816 2.65723 11.6562 -0.792969c2.98828 -3.4502 2.6416 -8.65137 -0.791992 -11.6562l-211.722 -184.611
c-8.37012 -7.29785 -19.333 -10.9463 -30.3115 -10.9463z" />
    <glyph glyph-name="uniF133" unicode="&#xf133;" 
d="M255.996 -63.9922c-141.158 0 -255.996 114.838 -255.996 255.988c0 141.158 114.838 255.996 255.996 255.996s256.004 -114.838 256.004 -255.996c0 -141.15 -114.846 -255.988 -256.004 -255.988zM255.996 417.026c-124.081 0 -225.03 -100.949 -225.03 -225.03
s100.949 -225.022 225.03 -225.022s225.038 100.949 225.038 225.022s-100.957 225.03 -225.038 225.03zM139.502 176.513v30.9668h233.004v-30.9668h-233.004zM139.502 258.891v30.9658h233.004v-30.9658h-233.004zM139.494 94.1436v30.9658h233.012v-30.9658h-233.012z
" />
    <glyph glyph-name="uniF18D" unicode="&#xf18d;" 
d="M466.624 280.448c31.376 -8.95996 45.376 -34.7363 45.376 -54.9443c0 -4.6084 -0.0957031 -5.9043 -0.208008 -8l-0.192383 -3.34375c-0.479492 -11.8398 -4.60742 -24.6406 -13.6641 -34.8164c6.06445 -11.2637 8.38477 -24.7998 6.22461 -37.9521
c-3.47168 -21.2314 -11.7119 -35.1357 -21.376 -44.2559c4.19141 -10.2559 6 -24.5762 -0.0322266 -43.6318c-3.59961 -11.6162 -9.13574 -29.4717 -26.3203 -41.2803c2.7207 -10.4961 1.88867 -20.8477 -0.367188 -28.1592
c-3.00879 -9.71289 -6.68848 -16.8965 -6.84863 -17.2168c-11.4395 -20.5918 -30.6562 -30.8477 -57.3115 -30.8477h-87.4727c-44.4795 0 -87.4238 9.15234 -95.5518 11.0078c-37.9199 8.71973 -55.6641 12.96 -64.8799 15.248
c-0.303711 0.0800781 -0.448242 0.112305 -0.736328 0.192383c-1.51953 0.399414 -2.76758 0.704102 -3.82324 0.992188c-0.224609 0.03125 -0.560547 0.12793 -0.751953 0.191406c-7.71289 -16.1279 -23.6484 -27.6318 -42.6885 -27.6318h-48
c-26.4639 0 -48 21.5361 -48 48v256c0 26.4639 21.5361 48 48 48h48c11.9521 0 23.5996 -5.55176 32 -12.7998l-0.847656 0.719727c1.64746 0.719727 12.9121 6.27246 16.8477 8.35254c53.6797 28.2236 63.6484 83.8711 64 116.096
c0.335938 26.2715 21.8721 47.6318 48 47.6318c36.9922 0 78.8164 -50.5596 78.8164 -107.968c0 -24.0322 -0.751953 -37.5684 -4 -52.5762c68.7832 -1.82422 115.808 -1.75977 135.808 -7.00781zM112 -16v256c0 8.84766 -7.15234 16 -16 16h-48
c-8.84766 0 -16 -7.15234 -16 -16v-256c0 -8.84766 7.15234 -16 16 -16h48c8.84766 0 16 7.15234 16 16zM479.632 215.44c0.208008 5.37598 0.368164 4.5752 0.368164 10.0635c0 4.99219 -1.50391 19.4883 -19.0078 24.4961c-14.1123 3.69629 -12.9922 6 -172.992 6
c13.2803 39.5361 14.8164 46.0957 14.8164 84.0322c0 42.0156 -29.9043 75.9678 -46.8164 75.9678c-10 0 -15.9043 -8.33594 -16 -16c-0.65625 -54.4961 -22.9121 -120.864 -96 -151.136c-0.959961 -0.400391 -2.30371 -0.816406 -3.2959 -1.2002
c-7.91992 -2.38379 -12.7041 -9.16797 -12.7041 -16.6719l0.112305 -220.992c0 -11.8076 13.5361 -14.0957 13.5361 -14.0957c4.17578 -1.18457 7.67969 -2.36816 74.1436 -17.6807c1.12012 -0.255859 44.7041 -10.2236 88.6396 -10.2236h87.4727
c16.4961 0 24.2881 5.24805 29.1201 13.9678c0.0957031 0.224609 2.46387 5.04004 4.46387 11.5361c1.82422 5.93652 1.00781 22.4961 -16.4961 22.4961h-25.0879c-4.43262 0 -8 3.59961 -8 8c0 4.43164 3.56738 8 8 8h26.0957c34.0322 0 37.1523 14.9756 42.2559 31.1201
c3.87207 12.2881 6.25586 32.8799 -20.752 32.8799h-31.5039c-4.43164 0 -8 3.59961 -8 8c0 4.43164 3.56836 8 8 8h38c27.0244 0 32.624 22.5596 34.6084 34.4961c1.55176 9.59961 -1.60059 29.5039 -25.6006 29.5039h-31.0078c-4.43164 0 -8 3.58398 -8 8s3.56836 8 8 8
h32c28 0 31.3125 15.5361 31.6318 23.4404zM72 32c13.248 0 24 -10.752 24 -24s-10.752 -24 -24 -24s-24 10.752 -24 24s10.752 24 24 24zM72 0c4.40039 0 8 3.59961 8 8s-3.59961 8 -8 8s-8 -3.59961 -8 -8s3.59961 -8 8 -8z" />
    <glyph glyph-name="uniF1E9" unicode="&#xf1e9;" 
d="M494.501 77.7402c23.3594 -23.5703 23.2529 -54.0107 -0.422852 -77.793c-4.22852 -4.22852 -8.45605 -8.35059 -12.5781 -12.3672c-8.13867 -7.92676 -15.8545 -15.4316 -23.042 -23.4648c-16.7002 -18.6025 -38.791 -28.1152 -65.6387 -28.1152
c-2.21973 0 -4.54492 0.105469 -6.87012 0.210938c-31.8154 1.79688 -64.4756 11.2041 -102.527 29.7012c-69.126 33.7178 -129.69 81.0703 -180.003 140.896c-40.377 48.0928 -69.126 96.0791 -87.9404 146.708c-8.24414 22.4082 -17.4404 52.3213 -15.0088 85.4043
c1.58496 21.0342 9.8291 38.791 24.627 52.8486c7.92773 7.61035 15.8545 15.5381 23.4648 23.2539c5.17969 5.28516 10.6758 10.6748 16.0664 16.0654c11.2041 11.0986 24.5215 16.9121 38.2627 16.9121c13.7402 0 27.0586 -5.81348 38.3682 -16.9121
c7.50488 -7.29297 15.0088 -14.7969 22.1963 -22.0908c3.38281 -3.38184 6.65918 -6.6582 10.041 -10.041c3.1709 -3.1709 6.34277 -6.3418 9.51367 -9.5127c7.08105 -7.08203 14.4805 -14.375 21.668 -21.668c23.5703 -23.7822 23.6758 -54.4346 0.105469 -78.1104
l-7.39941 -7.39941c-9.61816 -9.72363 -19.4482 -19.6592 -29.4893 -29.3838c7.1875 -16.2773 17.4404 -32.3438 32.1318 -50.418c30.2295 -37.3115 61.5166 -65.7441 95.5508 -87.0947c4.33398 -2.74805 9.30176 -5.17969 14.4805 -7.71582
c2.21973 -1.16309 4.5459 -2.3252 6.87109 -3.48828c11.3096 11.627 23.042 23.2539 34.3516 34.458l2.85352 2.85352c11.2041 11.0986 24.416 17.0176 38.2627 17.0176s27.0586 -5.91895 38.3682 -17.123c20.8232 -20.6113 42.2793 -41.9619 63.7363 -63.6309z
M473.995 20.0293c12.2607 12.3672 12.3672 25.3682 0 37.5234c-21.3506 21.5625 -42.8076 42.9131 -63.5244 63.5244c-4.12207 4.0166 -10.5693 8.77246 -18.2852 8.77246s-14.1641 -4.75586 -18.1807 -8.77246l-2.85352 -2.85449
c-11.9434 -11.9434 -24.416 -24.2041 -36.3604 -36.5713c-4.96777 -5.07324 -10.5693 -7.71582 -16.5938 -7.71582v0c-3.80566 0 -7.61035 0.951172 -11.416 3.06543c-3.06543 1.69141 -6.12988 3.27637 -9.5127 4.8623c-5.60156 2.74805 -11.415 5.60156 -17.123 9.19531
c-36.6768 23.042 -70.2891 53.5889 -102.526 93.2256c-17.335 21.3506 -29.2783 40.5879 -37.5234 60.3535c-5.17871 12.4717 0 21.1396 5.28516 26.2129c10.6758 10.2529 21.3506 21.0342 31.6035 31.3926c2.43164 2.53613 4.96777 4.96777 7.39941 7.50391
c12.6836 12.6836 12.5781 25.0508 -0.106445 37.8398c-7.1875 7.1875 -14.4805 14.4805 -21.5615 21.5625c-3.1709 3.1709 -6.34277 6.3418 -9.51367 9.5127c-3.38184 3.27637 -6.6582 6.65918 -10.041 10.041c-7.08203 7.1875 -14.5859 14.6924 -21.8789 21.8799
c-4.12305 4.0166 -10.5703 8.77246 -18.3916 8.77246c-7.82227 0 -14.2695 -4.75586 -18.2861 -8.77246c-5.28418 -5.28516 -10.5693 -10.6758 -15.749 -15.8545c-7.82129 -7.82227 -15.8545 -15.9609 -23.9932 -24.0996
c-9.61816 -9.08984 -14.7979 -20.3994 -15.8545 -34.2461c-1.58594 -21.4561 2.43066 -44.0752 13.3174 -73.248c17.6523 -47.5645 44.8164 -92.6973 83.0791 -138.253c47.6699 -56.6543 105.169 -101.575 170.701 -133.496
c34.5635 -16.8057 63.6309 -25.2617 91.6406 -26.8477c21.668 -1.16211 37.3115 4.65137 49.6777 18.4971c7.82129 8.77344 16.2773 17.0176 24.416 24.9453c4.0166 4.0166 8.13867 8.0332 12.1553 12.0488z" />
    <glyph glyph-name="uniF166" unicode="&#xf166;" 
d="M256 448c141.16 0 256 -114.842 256 -256s-114.842 -256 -256 -256s-256 114.842 -256 256s114.842 256 256 256zM256 -36.3242c125.898 0 228.324 102.426 228.324 228.324c0 35.2217 -8.02148 68.6035 -22.3262 98.4229
c-12.5732 26.209 -30.0117 49.6582 -51.1279 69.1836c-40.7285 37.6631 -95.1543 60.7178 -154.87 60.7178c-125.898 0 -228.324 -102.426 -228.324 -228.324c0 -38.1396 9.41406 -74.1182 26.0195 -105.754c10.9023 -20.7744 24.9043 -39.6768 41.3994 -56.0781
c41.3047 -41.0713 98.1914 -66.4922 160.905 -66.4922zM144.722 249.082c0 18.4505 9.22527 27.6758 27.6758 27.6758s27.6758 -9.22525 27.6758 -27.6758c0 -18.4505 -9.22527 -27.6758 -27.6758 -27.6758s-27.6758 9.22527 -27.6758 27.6758zM315.967 249.082
c0 18.4505 9.22559 27.6758 27.6768 27.6758c18.4505 0 27.6758 -9.22525 27.6758 -27.6758c0 -18.4505 -9.22525 -27.6758 -27.6758 -27.6758c-18.4512 0 -27.6768 9.22527 -27.6768 27.6758zM255.511 50.165c-5.95898 0 -11.9375 0.337891 -17.9238 1.02832
c-46.6338 5.37891 -89.75 32.2246 -115.333 71.8174l23.2441 15.0205c21.1426 -32.7178 56.7529 -54.9033 95.2607 -59.3438c49.4141 -5.70117 98.7627 17.5967 125.741 59.3438l23.2461 -15.0205c-29.3799 -45.4629 -80.6924 -72.8457 -134.235 -72.8457z" />
    <glyph glyph-name="uniF106" unicode="&#xf106;" 
d="M166.504 178.659l59.667 -61.1045c5.97559 -5.97559 5.97559 -17.1162 0 -23.0918c-2.99219 -2.99219 -6.90918 -4.47656 -10.8271 -4.47656s-7.82715 1.5 -10.8193 4.49121l-86.7373 86.7451c-2.86914 2.86914 -4.4834 6.81055 -4.4834 10.8652
c0 4.05566 1.61426 8.04199 4.4834 10.9111l86.7295 86.9209c5.96875 5.97559 15.6631 6.33594 21.6387 0.359375c5.97559 -5.97559 5.97559 -14.9355 0 -20.9111l-61.5566 -60.1025h221.564c8.44727 0 15.3037 -6.85547 15.3037 -15.3027
s-6.85645 -15.3037 -15.3037 -15.3037h-219.659zM512 192.004c0 -141.162 -114.834 -256.004 -255.996 -256.004s-256.004 114.842 -256.004 256.004c0 141.154 114.842 255.996 256.004 255.996c141.154 0 255.996 -114.842 255.996 -255.996zM30.6064 192.004
c0 -124.283 101.114 -225.397 225.397 -225.397s225.39 101.114 225.39 225.397c0 124.275 -101.106 225.39 -225.39 225.39s-225.397 -101.114 -225.397 -225.39z" />
    <glyph glyph-name="uniF15B" unicode="&#xf15b;" 
d="M460.719 317.82c28.2754 0 51.2812 -23.001 51.2812 -51.2783v-149.086c0 -28.2754 -23.0039 -51.2793 -51.2812 -51.2793h-55.9756v-18.3389c0 -35.9512 -29.248 -65.1992 -65.2012 -65.1992h-274.346c-35.9502 0 -65.1963 29.248 -65.1963 65.1992v333.358
c0 11.1377 9.02734 20.1621 20.1621 20.1621h364.419c11.1377 0 20.1621 -9.02441 20.1621 -20.1621v-63.376h55.9756zM364.419 47.8379v313.196h-324.095v-313.196c0 -13.7188 11.1592 -24.875 24.8721 -24.875h274.346c13.7188 0 24.877 11.1562 24.877 24.875z
M471.676 117.458v149.084c0 5.93848 -5.0166 10.9541 -10.957 10.9541h-55.9756v-170.992h55.9756c5.94043 0 10.957 5.01562 10.957 10.9541z" />
    <glyph glyph-name="uniF1DB" unicode="&#xf1db;" 
d="M404.497 443.66c35.6602 0 64.627 -28.9678 64.627 -64.6279c0 -35.6592 -28.9668 -64.627 -64.627 -64.627s-64.6279 28.9678 -64.6279 64.627c0 35.6602 28.9678 64.6279 64.6279 64.6279zM404.497 340.026c21.542 0 39.0059 17.4639 39.0059 39.0059
c0 21.543 -17.4639 39.0068 -39.0059 39.0068c-21.543 0 -39.0068 -17.4639 -39.0068 -39.0068c0 -21.542 17.4639 -39.0059 39.0068 -39.0059zM256 314.405c-35.6602 0 -64.627 28.9678 -64.627 64.627c0 35.6602 28.9668 64.6279 64.627 64.6279
s64.6279 -28.9678 64.6279 -64.6279c0 -35.6592 -28.9678 -64.627 -64.6279 -64.627zM256 418.039c-21.543 0 -39.0068 -17.5684 -39.0068 -39.0068c0 -21.542 17.4639 -39.0059 39.0068 -39.0059s39.0068 17.4639 39.0068 39.0059
c0 21.543 -17.4639 39.0068 -39.0068 39.0068zM447.896 301.333c35.3467 0 64.1045 -28.6533 64.1045 -64v-81.8818c0 -23.6338 -13.1768 -45.2812 -33.6729 -56.3662v-107.713c0 -28.1299 -22.9023 -51.0322 -51.0332 -51.0322h-58.1436
c-7.11133 0 -12.8623 5.75195 -12.8623 12.8623c0 7.11133 5.75098 12.8633 12.8623 12.8633h58.1436c14.0137 0 25.4121 11.3984 25.4121 25.4121v115.66c0 5.33301 3.34668 10.1436 8.36621 12.0254c15.1631 5.54297 25.3066 20.0791 25.3066 36.0791v81.8818
c0 21.2285 -17.2549 38.4834 -38.4834 38.4834h-55.0068c-7.11133 0 -12.8623 5.75195 -12.8623 12.8633s5.75098 12.8623 12.8623 12.8623h55.0068zM226.928 -59.3467c-28.1299 0 -51.0322 22.9023 -51.1367 51.0332v107.398
c-20.4971 11.085 -33.6738 32.7324 -33.6738 56.3662v81.8818c0 35.3467 28.7588 64.1045 64.1055 64.1045h99.4502c35.3467 0 64.1045 -28.7578 64.1045 -64.1045v-81.8818c0 -23.6338 -13.1758 -45.2812 -33.6729 -56.3662v-107.398
c0 -28.1309 -22.9014 -51.0332 -51.0322 -51.0332h-58.1445zM167.843 155.451c0 -16 10.1445 -30.5361 25.5166 -36.0791c5.01953 -1.88184 8.36621 -6.69238 8.36621 -12.0254v-115.66c0 -14.0137 11.3984 -25.4121 25.4121 -25.4121h58.1436
c14.0127 0 25.4111 11.3984 25.4111 25.4121v115.66c0 5.33301 3.34668 10.1436 8.36621 12.0254c15.0586 5.54297 25.2031 20.0791 25.2031 36.0791v81.8818c0 21.2295 -17.2549 38.4844 -38.4844 38.4844h-99.4502c-21.2295 0 -38.4844 -17.2549 -38.4844 -38.4844
v-81.8818zM172.131 379.032c0 -35.6592 -29.0723 -64.627 -64.6279 -64.627c-35.6602 0 -64.627 28.9678 -64.627 64.627c0 35.6602 28.9668 64.6279 64.627 64.6279s64.6279 -28.9678 64.6279 -64.6279zM68.4971 379.032c0 -21.542 17.4639 -39.0059 39.0059 -39.0059
c21.543 0 39.0068 17.4639 39.0068 39.0059c0 21.543 -17.4639 39.0068 -39.0068 39.0068c-21.542 0 -39.0059 -17.5684 -39.0059 -39.0068zM84.7061 -59.3467c-28.1309 0 -51.0332 22.9023 -51.0332 51.1377v107.398c-20.4961 11.085 -33.6729 32.7324 -33.6729 56.3662
v81.8818c0 35.3467 28.7578 64.1045 64.1045 64.1045h54.9023c7.11035 0 12.8623 -5.75098 12.8623 -12.8623s-5.75195 -12.8623 -12.8623 -12.8623h-54.7979c-21.2285 0 -38.4834 -17.2549 -38.4834 -38.4844v-81.8818c0 -16.1045 10.1436 -30.5361 25.2021 -36.0791
c5.01953 -1.88184 8.36621 -6.69238 8.36621 -12.0254v-115.556c0 -14.0137 11.3984 -25.4121 25.4121 -25.4121h58.1436c7.11133 0 12.8633 -5.75195 12.8633 -12.8623c0 -7.11133 -5.75195 -12.8633 -12.8633 -12.8633h-58.1436z" />
    <glyph glyph-name="uniF101" unicode="&#xf101;" 
d="M512 204.19v-24.3809h-243.81v-243.81h-24.3809v243.81h-243.81v24.3809h243.81v243.81h24.3809v-243.81h243.81z" />
    <glyph glyph-name="uniF1FC" unicode="&#xf1fc;" 
d="M509.43 209.49v-125.281h-24.5645v-99.0771c0 -27.0908 -22.04 -49.1299 -49.1309 -49.1299h-384.034c-27.0908 0 -49.1299 22.0391 -49.1299 49.1299v337.36c0 27.0908 22.0391 49.1309 49.1299 49.1309h145.957l130.668 72.6631
c4.37207 2.42676 9.32422 3.71387 14.3164 3.71387c10.71 0 20.585 -5.80664 25.7744 -15.1621l34.0479 -61.2168h33.2705c27.0908 0 49.1309 -22.0391 49.1309 -49.1299v-113.001h24.5645zM435.734 351.97h-22.3359l14.5625 -26.2051h36.9268
c-1.66016 14.71 -14.0215 26.2051 -29.1533 26.2051zM337.885 427.11l-182.244 -101.337h249.838l-54.2402 97.5234c-2.54395 4.58984 -8.74512 6.39746 -13.3535 3.81348zM465.212 -14.8682v99.0664h-71.8574c-33.3691 0 -60.5283 27.1582 -60.5283 60.5283v4.22559
c0 33.3691 27.1582 60.5283 60.5283 60.5283h71.8574v96.6299h-26.3232h-359.036h-22.0107c-5.43359 0 -9.82617 4.40137 -9.82617 9.82617s4.39258 9.82617 9.82617 9.82617h57.3545l47.126 26.207h-110.622c-16.252 0 -29.4785 -13.2266 -29.4785 -29.4785v-337.359
c0 -16.2529 13.2266 -29.4795 29.4785 -29.4795h384.032c16.2529 0 29.4795 13.2266 29.4795 29.4795zM489.777 103.86v85.9805h-4.91211h-91.5107c-22.543 0 -40.877 -18.3369 -40.877 -40.8779v-4.22559c0 -22.542 18.3359 -40.877 40.877 -40.877h91.5107h4.91211z
M423.451 146.043c0 -11.9883 -9.70898 -21.6953 -21.6953 -21.6953c-11.9883 0 -21.6953 9.70898 -21.6953 21.6953s9.70801 21.6953 21.6953 21.6953c11.9883 0.00195312 21.6953 -9.71582 21.6953 -21.6953z" />
    <glyph glyph-name="uniF13F" unicode="&#xf13f;" 
d="M332.651 79.5488c4.98535 -2.87207 6.70312 -9.24219 3.83105 -14.2295l-71.4512 -124.1c-1.85938 -3.22949 -5.30273 -5.21973 -9.0293 -5.21973s-7.16992 1.99219 -9.03027 5.21973l-66.9443 116.271l-74.9287 -29.9355
c-3.87012 -1.55078 -8.28809 -0.636719 -11.2334 2.30664c-2.94531 2.94824 -3.85352 7.36426 -2.30762 11.2334l29.9375 74.9307l-116.271 66.9453c-4.9873 2.87109 -6.70117 9.24023 -3.83105 14.2275c2.87012 4.98535 9.24023 6.69922 14.2275 3.83105l124.098 -71.4512
c4.49219 -2.58691 6.39941 -8.08301 4.47656 -12.8955l-24.2773 -60.7666l60.7666 24.2764c4.80859 1.92871 10.3086 0.015625 12.8955 -4.47559l62.4229 -108.419l62.4199 108.419c2.87109 4.98535 9.24414 6.69922 14.2295 3.83105zM506.78 201.03
c3.22754 -1.86035 5.22168 -5.30176 5.22168 -9.02832s-1.99219 -7.16992 -5.21973 -9.03027l-116.271 -66.9443l29.9355 -74.9307c2.13281 -5.34277 -0.466797 -11.4053 -5.81152 -13.5391c-1.26758 -0.506836 -2.57715 -0.748047 -3.8623 -0.748047
c-4.1377 0 -8.05078 2.47949 -9.67969 6.55664l-33.2852 83.3174c-1.92578 4.81445 -0.0175781 10.3086 4.47559 12.8955l108.417 62.4209l-108.417 62.4229c-4.49316 2.58496 -6.39941 8.08105 -4.47559 12.8936l24.2764 60.7666l-60.7656 -24.2764
c-4.81836 -1.92871 -10.3096 -0.015625 -12.8975 4.47559l-62.4199 108.419l-62.4229 -108.419c-2.58496 -4.49219 -8.08691 -6.39941 -12.8955 -4.47559l-60.7666 24.2764l24.2773 -60.7656c1.9248 -4.81348 0.015625 -10.3076 -4.47656 -12.8945l-41.751 -24.0391
c-4.98535 -2.86816 -11.3564 -1.15332 -14.2266 3.83105c-2.87109 4.9873 -1.15723 11.3564 3.83008 14.2285l33.9229 19.5312l-29.9375 74.9287c-1.54492 3.87012 -0.636719 8.28809 2.30762 11.2334c2.94531 2.94434 7.36328 3.86035 11.2334 2.30762l74.9307 -29.9355
l66.9443 116.271c1.86035 3.22949 5.30371 5.21973 9.03027 5.21973s7.16992 -1.99023 9.0293 -5.21973l66.9443 -116.271l74.9277 29.9355c3.86816 1.54883 8.29004 0.638672 11.2334 -2.30664c2.94629 -2.94824 3.85449 -7.36426 2.30957 -11.2334l-29.9365 -74.9297z
M256.002 126.274c-36.2412 0 -65.7256 29.4844 -65.7256 65.7256s29.4844 65.7256 65.7256 65.7256s65.7246 -29.4844 65.7246 -65.7256s-29.4834 -65.7256 -65.7246 -65.7256zM256.002 236.887c-24.751 0 -44.8877 -20.1357 -44.8877 -44.8867
c0 -24.75 20.1367 -44.8867 44.8877 -44.8867c24.75 0 44.8867 20.1367 44.8867 44.8867c0 24.751 -20.1367 44.8867 -44.8867 44.8867z" />
    <glyph glyph-name="uniF163" unicode="&#xf163;" 
d="M25.1904 166.822c-13.916 0 -25.1904 11.2715 -25.1904 25.1738c0 13.9053 11.2744 25.1797 25.1904 25.1797h31.542v50.6855c0 16.2285 13.1562 29.377 29.377 29.377c5.08691 0 9.79395 -1.40234 13.9648 -3.68359v14.2314c0 16.2158 13.1709 29.374 29.3867 29.374
c16.2217 0 29.3779 -13.1465 29.3779 -29.374v-90.5977h186.914v90.6094c0 16.2178 13.1523 29.374 29.3809 29.374c16.2217 0 29.374 -13.1494 29.374 -29.374v-14.2412c4.16895 2.28125 8.89453 3.69336 13.9736 3.69336c16.2305 0 29.3838 -13.1562 29.3838 -29.3779
v-50.6836h38.9541c13.917 0 25.1787 -11.2666 25.1787 -25.1797c0 -13.916 -11.2627 -25.1768 -25.1787 -25.1768h-38.9541v-50.6934c0 -16.2305 -13.1533 -29.373 -29.3838 -29.373c-5.0791 0 -9.80469 1.4043 -13.9736 3.69238v-14.2441
c0 -16.2217 -13.1523 -29.3818 -29.374 -29.3818c-16.2285 0 -29.3809 13.1504 -29.3809 29.3818v90.6084h-186.914v-90.6084c0 -16.2217 -13.1641 -29.3818 -29.3779 -29.3818c-16.2266 0 -29.3867 13.1504 -29.3867 29.3818v14.2256
c-4.16309 -2.2793 -8.87988 -3.69336 -13.9648 -3.69336c-16.2188 0 -29.377 13.1602 -29.377 29.374v50.7021h-31.542z" />
    <glyph glyph-name="uniF1D4" unicode="&#xf1d4;" 
d="M507.204 126.109c3.18164 -4.67871 4.7959 -10.0547 4.7959 -15.9727c0 -17.9639 -13.1221 -34.71 -36.9502 -47.1543c-20.7061 -10.8125 -47.5859 -17.2695 -71.9004 -17.2695c-47.9062 0 -284.426 7.19922 -315.224 8.95312
c-5.97266 0.353516 -12.2188 0.518555 -19.6621 0.518555c-4.65039 0 -8.98438 -0.0576172 -13.1748 -0.114258c-3.68359 -0.0488281 -7.1582 -0.0947266 -10.4229 -0.0947266c-23.7666 0 -40.6279 2.46191 -41.0986 34.3057
c-0.0556641 3.68164 0.642578 6.13086 2.19629 7.70801c1.1875 1.20605 2.7959 1.81641 4.78027 1.81641c2.57422 0 5.68359 -1.01074 9.61816 -2.29102c6.07129 -1.97754 14.3887 -4.68359 24.5029 -4.68359c3.24219 0 6.69141 0.0458984 10.3486 0.0947266
c4.20898 0.0556641 8.5625 0.114258 13.25 0.114258c7.55762 0 13.9082 -0.167969 19.9893 -0.529297c30.7598 -1.75098 267.039 -8.94336 314.896 -8.94336c37.583 0 84.9756 16.1855 99.2314 43.2686l2.18457 4.15332zM41.4717 107.123
c-23.5957 0 -40.333 2.45996 -40.7998 34.3096c-0.0595703 4.06738 -0.163086 8.35352 -0.270508 12.8135c-1.00293 41.6475 -2.37598 98.6846 26.9932 136.015c8.64062 10.6123 14.4609 15.126 19.4912 15.126c6.63086 0 9.61523 -7.21484 13.0703 -15.5703
c4.13086 -9.98926 9.27246 -22.4219 21.7168 -26.9521c10.1699 -3.70312 20.9551 -5.6582 31.1904 -5.6582c17.707 0 29.6846 5.43066 33.417 9.0791c0.00878906 0.00878906 0.0185547 0.0185547 0.0283203 0.0273438c-0.641602 1.33105 -4.63574 4.07422 -7.32227 5.91895
c-6.74707 4.63184 -15.1436 10.3984 -16.5117 18.5391c-0.691406 4.1084 0.513672 8.2959 3.58203 12.4521l22.8984 30.707c2.04492 2.73242 5.26367 4.35938 8.61035 4.35938c2.07617 0 4.14453 -0.667969 6 -1.93359c3.0459 -1.45703 37.0312 -17.7148 78.4854 -37.7324
c3.52441 3.54297 8.40039 5.74219 13.7822 5.74219c10.7236 0 19.4473 -8.72363 19.4473 -19.4473c0 -0.78125 -0.0595703 -1.54688 -0.149414 -2.30469c4.24316 -2.05957 8.49902 -4.12695 12.748 -6.19238c3.19141 2.29492 7.0918 3.66211 11.3145 3.66211
c10.4541 0 18.9834 -8.29688 19.4072 -18.6484c4.73926 -2.32031 9.39746 -4.60645 13.9404 -6.83984c3.39941 2.90723 7.80078 4.6748 12.6152 4.6748c10.7236 0 19.4482 -8.72363 19.4482 -19.4482c0 -0.367188 -0.0351562 -0.728516 -0.0556641 -1.09082
c12.5449 -6.2832 22.8389 -11.54 29.5898 -15.167c14.9893 -8.03516 32.7285 -13.0566 49.8828 -17.9121c31.4639 -8.90723 61.1807 -17.3193 61.1807 -43.3662c0 -17.96 -13.0215 -34.7041 -36.667 -47.1494c-20.5508 -10.8174 -47.2275 -17.2744 -71.3613 -17.2744
c-47.54 0 -282.223 7.19727 -312.778 8.95117c-5.91211 0.354492 -12.1084 0.518555 -19.5078 0.518555c-4.61426 0 -8.91504 -0.0576172 -13.0732 -0.113281c-3.65527 -0.0488281 -7.10156 -0.0947266 -10.3428 -0.0947266zM287.626 222.843
c-0.0107422 0 -84.667 -76.3682 -84.667 -76.3682s-4.13086 -4.2002 0.847656 -4.2002c5.98926 0 20.6885 -0.0576172 28.2705 -0.0576172c4.69629 0 7.79199 2.82324 7.85254 2.86719l76.1016 69.6562s4.52539 3.94043 -0.487305 5.18652
c-5.8623 1.45605 -15.4434 4.03711 -19.4951 5.25c-4.65625 1.39453 -8.42285 -2.33398 -8.42285 -2.33398zM229.681 239.283l-104.812 -92.9912c0.00390625 0.00292969 -3.24707 -3.92969 0.40918 -3.92969c6.46875 0 22.2783 0.37793 30.5645 0.37793
c7.3418 0 9.52051 3.9375 9.58594 3.98633l94.2031 85.4062c0.00195312 0.00488281 4.85156 4.72266 0.27832 6.00195c-5.34863 1.49707 -13.7344 3.5791 -17.3076 4.70898c-7.04785 2.23047 -12.9004 -3.54199 -12.9209 -3.56055z" />
    <glyph glyph-name="uniF1FF" unicode="&#xf1ff;" 
d="M178.314 369.078c0 52.6146 26.3073 78.9219 78.9219 78.9219c52.6146 0 78.9219 -26.3073 78.9219 -78.9219s-26.3073 -78.9219 -78.9219 -78.9219c-52.6146 0 -78.9219 26.3073 -78.9219 78.9219zM477.643 208.251c8.46109 0 15.6841 -2.99202 21.6691 -8.97604
c5.98495 -5.98404 8.97842 -13.2072 8.98035 -21.6695c0 -8.45926 -2.99124 -15.6802 -8.97369 -21.6628c-5.98248 -5.9826 -13.2048 -8.97391 -21.6669 -8.97391c-51.291 0 -97.8366 11.4977 -139.637 34.4932v-124.968
c16.1126 -0.954548 27.9589 -1.75357 35.5388 -2.39706c7.57986 -0.643497 16.6406 -1.8753 27.1821 -3.6954c10.5416 -1.8201 18.1703 -4.11987 22.8862 -6.89929c4.71591 -2.77943 9.06818 -6.64466 13.0568 -11.5957c3.99203 -4.95105 6.42145 -11.0169 7.28821 -18.1977
c1.81863 -15.0013 -2.42975 -28.3679 -12.7451 -40.0996c-21.5707 -24.5127 -71.0847 -37.0462 -148.542 -37.6006h-0.263672c-9.11411 0 -17.1086 3.04655 -23.9834 9.13965c-6.86101 -6.08922 -14.8525 -9.13577 -23.9746 -9.13965h-0.267578
c-77.458 0.554317 -126.969 13.0878 -148.534 37.6006c-10.3185 11.7259 -14.5681 25.0951 -12.749 40.1074c1.05116 8.67931 3.83611 15.7221 8.35486 21.1283c4.51876 5.40622 12.1163 9.59892 22.7926 12.5781c10.6763 2.97916 20.6029 5.05772 29.7799 6.23571
c9.17697 1.17798 23.3851 2.52476 42.6244 4.04034v125.134c-42.6704 -23.9062 -90.0422 -35.8594 -142.115 -35.8594c-8.45902 0 -15.6797 2.99062 -21.6621 8.97183s-8.97361 13.2025 -8.97361 21.6639c4.76837e-07 8.46083 2.99094 15.683 8.97281 21.6664
c5.98188 5.98346 13.2029 8.97519 21.6629 8.97519c22.0016 0 42.2377 2.48537 60.7081 7.4561s32.7081 10.1547 42.7131 15.552c10.0052 5.39726 24.0526 13.9122 42.1423 25.5446c9.7804 6.28806 17.2325 11.0019 22.3564 14.1416
c2.51039 1.54233 5.47459 2.72299 8.89258 3.54199c8.43149 5.25815 17.3709 9.01532 26.8184 11.2715l0.195312 0.0380859l19.0664 -20.0068l19.6582 19.79c10.3106 -2.52841 19.8913 -6.74844 28.7422 -12.6602c1.90054 -0.811188 3.26416 -1.46939 4.09082 -1.97461
c5.10971 -3.1312 12.5622 -7.84506 22.3574 -14.1416c18.0918 -11.6326 32.1395 -20.147 42.1432 -25.5434c10.0037 -5.3972 24.2408 -10.5812 42.7113 -15.5519c18.4706 -4.97162 38.7049 -7.45743 60.7031 -7.45743z" />
    <glyph glyph-name="uniF19F" unicode="&#xf19f;" 
d="M102.868 184.154c15.4951 0 28.1035 -12.5996 28.1035 -28.1035c0 -15.4941 -12.6084 -28.1035 -28.1035 -28.1035c-15.4941 0 -28.1035 12.6094 -28.1035 28.1035s12.6094 28.1035 28.1035 28.1035zM102.868 146.683c5.1709 0 9.36816 4.19727 9.36816 9.36816
s-4.19727 9.36816 -9.36816 9.36816s-9.36719 -4.19727 -9.36719 -9.36816s4.19629 -9.36816 9.36719 -9.36816zM504.3 389.357c11.1104 -16.7402 10.127 -39.3643 -2.41699 -55.0361c-9.50879 -11.8691 -23.4941 -18.1172 -38.708 -17.5273
c-11.3447 0.458984 -20.9932 -2.84766 -27.6445 -9.50879l-79.5889 -79.5801c-2.41699 -2.41602 -5.15234 -4.36523 -8.00098 -6.08887h28.6191l-9.77051 -14.5859c-2.44531 -3.64355 -4.78711 -6.54785 -7.38184 -9.14258
c-39.8975 -39.8887 -65.8281 -88.0205 -74.999 -139.169c-5.18066 -28.9277 -18.9326 -55.2236 -39.7764 -76.0664c-27.2041 -27.2051 -63.1299 -42.0713 -101.473 -42.0713c-1.15137 0 -2.29492 0.0185547 -3.44727 0.046875
c-39.6074 0.917969 -76.1602 17.5928 -102.925 46.9609c-50.6328 55.542 -48.7402 144.236 4.19727 197.699c23.0352 23.251 53.5938 38.043 86.0723 41.6494c54.6143 6.05176 102.597 28.375 138.766 64.5537c11.1387 11.1387 26.0898 17.3965 42.0986 17.6299
l10.3428 0.160156l57.6406 57.6396c6.66016 6.66113 10.042 16.4785 9.50781 27.6357c-0.720703 15.1006 5.6582 29.209 17.5176 38.7168c15.6631 12.5342 38.2773 13.5371 55.0176 2.43555c8.80566 -5.85449 15.1855 -14.2012 18.4551 -24.1504
c0.599609 -1.85449 1.90137 -3.15625 3.7373 -3.75586c9.95801 -3.26953 18.3145 -9.6582 24.1602 -18.4453zM265.953 62.0449c9.22754 51.4287 34.1182 99.8984 72.2266 140.854h-29.2188v15.6631v18.1738l-32.8994 -10.9609l18.6885 62.2783
c-5.88281 -2.04297 -11.2412 -5.3584 -15.7002 -9.80859c-39.2139 -39.2236 -91.0654 -63.4014 -149.951 -69.9307c-28.6279 -3.17578 -54.502 -15.7012 -74.8115 -36.207c-46.043 -46.4932 -47.6826 -123.6 -3.66309 -171.891
c23.2881 -25.5459 55.0732 -40.0576 89.5098 -40.8535c34.7363 -0.730469 66.8672 12.1787 91.2432 36.5439c18.1172 18.127 30.0801 40.9844 34.5762 66.1377zM487.25 346.05c7.38184 9.21777 8 23.0732 1.45215 32.9375
c-3.49414 5.26465 -8.46875 9.07715 -14.3887 11.0166c-0.81543 0.271484 -1.51758 0.711914 -2.2959 1.05859c-1.10449 -0.49707 -2.32227 -0.777344 -3.60645 -0.805664c-8.14941 -0.15918 -15.9531 -3.74707 -21.415 -9.83691
c-1.84473 -2.06055 -4.41211 -3.10938 -6.96973 -3.10938c-2.22949 0 -4.46777 0.786133 -6.25684 2.39746c-3.85059 3.44727 -4.16895 9.37793 -0.711914 13.2275c6.58496 7.34473 15.2783 12.4131 24.7402 14.6895c-2.09863 5.04883 -5.53613 9.36719 -10.2207 12.4775
c-9.86426 6.56641 -23.7188 5.94824 -32.9375 -1.44238c-7.11914 -5.71484 -10.9512 -14.1641 -10.5107 -23.2041c0.787109 -16.5156 -4.54297 -31.3545 -14.9785 -41.7812l-78.7744 -78.7744l-5.98633 -19.9434l23.3076 7.77539v-28.3848
c5.64844 0.299805 10.96 2.58496 14.9883 6.62305l79.5801 79.5801c10.4258 10.4443 25.1895 15.7471 41.79 14.9785c8.99316 -0.505859 17.4893 3.3916 23.1943 10.5205zM248.717 97.7168c5.08691 -0.908203 8.4873 -5.77051 7.57812 -10.876
c-2.04199 -11.4561 -5.62988 -22.6328 -10.6602 -33.2275c-1.60254 -3.37207 -4.96484 -5.34863 -8.46875 -5.34863c-1.34863 0 -2.70703 0.299805 -4.00977 0.908203c-4.67383 2.2207 -6.66992 7.80371 -4.44922 12.4785c4.31836 9.0957 7.39062 18.6699 9.14258 28.4873
c0.899414 5.08691 5.66797 8.55273 10.8672 7.57812zM212.763 36.6201c3.27832 3.99023 9.19922 4.57129 13.1807 1.27441c4 -3.28809 4.57129 -9.19043 1.27344 -13.1807c-22.7822 -27.6445 -56.1875 -46.8955 -91.6172 -52.8066
c-0.524414 -0.09375 -1.03027 -0.131836 -1.5459 -0.131836c-4.49609 0 -8.46777 3.25098 -9.22754 7.83203c-0.851562 5.0957 2.5957 9.9209 7.70117 10.7725c31.0264 5.18066 60.2725 22.0332 80.2354 46.2402z" />
    <glyph glyph-name="uniF1BB" unicode="&#xf1bb;" 
d="M510.661 216.72c4.66113 -14.3994 -3.2334 -29.8506 -17.6328 -34.5127l-90.7324 -29.3691c-13.0615 -4.22852 -27.2393 1.86035 -33.1641 14.252c-22.1006 46.3281 -33.75 78.7891 -40.5537 88.2637v-164.623l70.1572 17.2393
c19.9229 4.89648 40.0439 -7.28711 44.9385 -27.2109c4.89648 -19.9229 -7.28711 -40.0439 -27.2109 -44.9375l-69.791 -17.1484c-0.0322266 -2.79785 -0.37207 -5.63477 -1.06836 -8.46973c-4.89453 -19.917 -25.0117 -32.1094 -44.9385 -27.21l-49.6045 12.1875
l-49.6055 -12.1875c-19.9121 -4.89746 -40.04 7.2793 -44.9375 27.21c-0.697266 2.83398 -1.03613 5.6709 -1.06836 8.46973l-69.792 17.1484c-19.9229 4.89355 -32.1064 25.0146 -27.21 44.9375c4.89453 19.9248 25.0176 32.1045 44.9375 27.2109l80.0371 -19.666v167.067
c-6.8584 -9.59375 -19.0625 -43.3623 -40.5547 -88.2832c-5.9209 -12.3818 -20.0938 -18.4795 -33.1631 -14.25l-90.7324 29.3691c-14.3994 4.66211 -22.2939 20.1133 -17.6328 34.5127s20.1143 22.292 34.5127 17.6328l67.5654 -21.8701
c4.97461 11.0254 11.79 26.3613 20.4121 46.2754c8.1377 18.793 23.2852 53.7744 62.5957 53.7744h1.06543c12.2539 -25.5225 38.3574 -43.1895 68.5107 -43.1895s56.2568 17.667 68.5117 43.1895h1.06445c39.3105 0 54.458 -34.9814 62.5957 -53.7754
c8.62305 -19.9131 15.4375 -35.249 20.4121 -46.2744l67.5635 21.8701c14.3975 4.66113 29.8516 -3.2334 34.5127 -17.6328zM199.203 345.294c0 37.8639 18.9323 56.7959 56.7969 56.7959c37.8646 0 56.7969 -18.932 56.7969 -56.7959s-18.9323 -56.7959 -56.7969 -56.7959
c-37.8646 0 -56.7969 18.932 -56.7969 56.7959z" />
    <glyph glyph-name="uniF18A" unicode="&#xf18a;" 
d="M511.153 288.069c0.581055 -3.63281 3.00293 -22.7559 -4.3623 -53.9307c-10.6143 -44.9893 -35.1328 -85.8926 -70.8867 -118.298l-181.436 -161.86l-178.373 161.87c-35.7539 32.3955 -60.2725 73.3086 -70.8867 118.288
c-7.36523 31.1846 -4.94336 50.3076 -4.35254 53.9404c7.46387 82.2598 65.6973 141.94 138.554 141.94c47.7666 0 90.3926 -25.5908 115.177 -68.001c25.0107 41.8682 69.459 67.9912 118.003 67.9912c72.8662 0 131.09 -59.6807 138.563 -141.94zM487.619 238.648
c6.97168 29.5107 4.10645 46.1914 4.08691 46.3486c-6.52832 73.0039 -56.5693 125.319 -119.106 125.319c-47.2441 0 -90.0186 -29.0479 -108.993 -73.9883l-9.06836 -21.4951l-9.06934 21.4951c-19.2793 45.6396 -59.9072 73.998 -106.059 73.998
c-62.5469 0 -112.578 -52.3154 -118.979 -124.384l-0.147461 -0.994141c-0.00976562 -0.108398 -2.875 -16.7793 4.09668 -46.29c9.69824 -41.0801 32.1494 -78.498 64.9482 -108.215l165.258 -149.976l168.143 150.015c32.7402 29.6582 55.2012 67.0859 64.8896 108.166z
" />
    <glyph glyph-name="uniF1DE" unicode="&#xf1de;" 
d="M256 448c141.154 0 256 -114.836 256 -256s-114.846 -256 -256 -256s-256 114.836 -256 256s114.846 256 256 256zM256 -44.3076c130.294 0 236.308 106.014 236.308 236.308s-106.014 236.308 -236.308 236.308s-236.308 -106.014 -236.308 -236.308
s106.014 -236.308 236.308 -236.308zM376.635 296.999c3.62402 4.07715 9.83691 4.44141 13.9131 0.817383c4.06641 -3.60352 4.43066 -9.83594 0.817383 -13.8926l-157.539 -177.23c-1.93945 -2.18652 -4.64746 -3.30859 -7.36426 -3.30859
c-2.16699 0 -4.34277 0.708984 -6.1543 2.15625l-98.4619 78.7695c-4.24316 3.39648 -4.93262 9.58984 -1.53516 13.8438c3.38672 4.2334 9.59961 4.93262 13.833 1.53516l91.166 -72.9297z" />
    <glyph glyph-name="uniF129" unicode="&#xf129;" 
d="M363.71 448c20.5791 0 37.2588 -16.7168 37.2588 -37.2969v-437.444c0 -20.5605 -16.6797 -37.2588 -37.2588 -37.2588h-215.42c-20.6162 0 -37.2588 16.6982 -37.2588 37.2588v437.444c0 20.5801 16.6426 37.2969 37.2588 37.2969h215.42zM202.845 425.35
c-2.70508 0 -4.85059 -4.01172 -4.85059 -8.97461s2.14551 -8.99219 4.85059 -8.99219h106.348c2.68652 0 4.87012 4.0293 4.87012 8.99219s-2.18359 8.97461 -4.87012 8.97461h-106.348zM256.019 -27.1885c13.0791 0 23.751 10.6719 23.751 23.8066
s-10.6719 23.7695 -23.751 23.7695c-13.1162 0 -23.7881 -10.6348 -23.7881 -23.7695s10.6719 -23.8066 23.7881 -23.8066zM373.058 54.3262v330.742h-234.097v-330.742h234.097z" />
    <glyph glyph-name="uniF1C3" unicode="&#xf1c3;" 
d="M485.793 245.746c15.2939 -2.56738 26.418 -15.7227 26.2041 -31.2314v-45.0283c0 -15.5088 -11.124 -28.6641 -26.418 -31.2314l-35.9375 -5.98926c-3.63672 -11.9785 -8.55664 -23.6367 -14.4385 -34.8672l21.1768 -29.7334
c8.98438 -12.6211 7.4873 -29.8408 -3.42285 -40.751l-31.8721 -31.8721c-5.99023 -5.99023 -13.9043 -9.30566 -22.3545 -9.30566v0c-6.63086 0 -13.0479 2.03223 -18.3965 5.88281l-29.626 21.1768c-11.124 -5.88184 -22.7822 -10.6953 -34.8682 -14.4385
l-6.0957 -35.9375c-2.56738 -15.2949 -15.7227 -26.418 -31.2314 -26.418h-45.1357c-15.5078 0 -28.6641 11.124 -31.2305 26.418l-5.99023 35.9375c-11.6582 3.63672 -22.9951 8.23535 -33.7979 13.9043l-30.0547 -21.3916
c-5.34766 -3.85059 -11.6572 -5.88184 -18.2891 -5.88184c-8.44922 0 -16.3643 3.31543 -22.3535 9.30469l-31.873 31.873c-11.0166 10.9092 -12.4062 28.1289 -3.42285 40.75l21.0703 29.3057c-5.98926 11.123 -10.9092 22.7812 -14.6523 34.7607l-36.3652 6.20312
c-15.2949 2.56738 -26.418 15.7227 -26.418 31.2314v45.0283c0 15.5088 11.123 28.6641 26.418 31.2305l35.5098 5.99023c3.63574 12.0859 8.3418 23.7441 14.2246 34.9746l-21.3906 30.0537c-8.98438 12.6211 -7.4873 29.8408 3.42188 40.751l31.9805 31.8721
c5.88184 5.99023 13.9033 9.30566 22.3535 9.30566c6.63086 0 13.0488 -2.03223 18.3965 -5.88281l29.4121 -21.1768c11.124 5.98926 22.7822 10.9092 34.7607 14.6523l6.2041 36.3652c2.56641 15.2949 15.7217 26.418 31.2305 26.418h45.0283
c15.5088 0 28.6641 -11.123 31.2314 -26.418l5.98926 -35.5098c12.5137 -3.74316 24.5996 -8.77051 36.1514 -14.8662l29.7334 21.1768c5.34766 3.85059 11.6582 5.88281 18.2891 5.88281c8.4502 0 16.3643 -3.31543 22.3545 -9.30566l31.8721 -31.8721
c11.0166 -10.9102 12.4072 -28.1299 3.42285 -40.75l-21.1768 -29.627c5.88184 -11.124 10.6953 -22.7822 14.4385 -34.8682zM483.333 169.486h0.106445v45.0283c0 1.39062 -0.962891 2.56738 -2.35254 2.78125l-44.9219 7.59375
c-5.56152 0.855469 -10.1611 5.02637 -11.5508 10.5889c-4.06445 15.7217 -10.2676 30.8027 -18.6104 44.8145c-2.8877 4.91992 -2.67383 11.123 0.641602 15.7217l26.418 37.1143c0.749023 1.17578 0.641602 2.67383 -0.321289 3.63574l-31.8721 31.873
c-0.749023 0.749023 -1.60449 0.855469 -2.03223 0.855469c-0.535156 0 -1.06934 -0.213867 -1.60449 -0.53418l-36.8994 -26.5254c-4.70605 -3.31543 -10.8027 -3.5293 -15.7227 -0.641602c-14.332 8.44922 -29.7334 14.7598 -45.8838 18.8242
c-5.5625 1.39062 -9.7334 5.98926 -10.6963 11.6582l-7.48633 44.6006c-0.213867 1.39062 -1.39062 2.35254 -2.78125 2.35254h-45.0283c-1.39062 0 -2.56641 -0.961914 -2.78027 -2.35254l-7.70117 -45.2422c-0.962891 -5.56152 -5.13379 -10.0537 -10.5889 -11.5518
c-15.7227 -4.06348 -30.8027 -10.4814 -44.707 -18.8242c-4.91992 -2.8877 -11.124 -2.67383 -15.8301 0.641602l-36.8994 26.3115c-0.427734 0.321289 -0.962891 0.535156 -1.60449 0.535156c-0.53418 0 -1.2832 -0.107422 -2.03223 -0.856445l-31.8721 -31.8721
c-0.962891 -0.962891 -1.07031 -2.56738 -0.321289 -3.63672l26.6318 -37.4346c3.31543 -4.59863 3.63672 -10.6953 0.749023 -15.6152c-8.23535 -14.0117 -14.332 -29.1992 -18.2891 -44.9219c-1.39062 -5.56152 -5.99023 -9.73242 -11.6582 -10.6953l-44.6006 -7.4873
c-1.39062 -0.213867 -2.35352 -1.38965 -2.35352 -2.78027v-45.0283c0 -1.39062 0.962891 -2.56738 2.35352 -2.78125l45.2422 -7.7002c5.56152 -0.962891 10.0537 -5.13477 11.5508 -10.5889c4.06445 -15.7227 10.4814 -30.8037 18.8242 -44.708
c2.8877 -4.91992 2.67383 -11.123 -0.641602 -15.8291l-26.3115 -36.8994c-0.748047 -1.17676 -0.641602 -2.67383 0.321289 -3.63672l31.873 -31.873c0.748047 -0.748047 1.60449 -0.855469 2.03223 -0.855469c0.53418 0 1.06934 0.213867 1.60352 0.535156
l37.4346 26.6318c2.45996 1.81836 5.45508 2.67383 8.34277 2.67383c2.45996 0 5.02734 -0.641602 7.27344 -1.9248c13.7969 -7.91504 28.5566 -14.0117 43.8516 -17.9688c5.45508 -1.39062 9.62598 -5.88281 10.5889 -11.5518l7.48633 -44.9209
c0.213867 -1.39062 1.39062 -2.35352 2.78125 -2.35352h45.0283c1.39062 0 2.56641 0.962891 2.78027 2.35352l7.59473 44.9209c0.855469 5.56152 5.02637 10.1611 10.5879 11.5518c15.7227 4.06445 30.8037 10.2676 44.8145 18.6104
c4.91992 2.8877 11.124 2.67383 15.7227 -0.641602l37.1143 -26.4189c0.427734 -0.320312 0.961914 -0.53418 1.60352 -0.53418c0.535156 0 1.28418 0.106445 2.03223 0.855469l31.873 31.873c0.962891 0.961914 1.06934 2.56641 0.321289 3.63574l-26.4189 37.2207
c-3.31543 4.70605 -3.5293 10.8027 -0.641602 15.7227c8.34277 14.0117 14.5459 29.0918 18.6104 44.8145c1.39062 5.45508 5.88281 9.62598 11.5518 10.5889l44.9209 7.48633c1.39062 0.214844 2.35352 1.39062 2.35352 2.78125zM256.052 302.539
c60.9648 0 110.485 -49.5205 110.485 -110.485s-49.5205 -110.485 -110.485 -110.485s-110.485 49.5205 -110.485 110.485s49.5205 110.485 110.485 110.485zM256.052 110.447c45.0283 0 81.6074 36.5781 81.6074 81.6064s-36.5791 81.6074 -81.6074 81.6074
s-81.6074 -36.5791 -81.6074 -81.6074s36.5791 -81.6064 81.6074 -81.6064z" />
    <glyph glyph-name="uniF104" unicode="&#xf104;" 
d="M509.034 199.68c1.97461 -1.97461 2.96582 -4.24316 2.96582 -6.80469c0 -2.76758 -0.984375 -5.13379 -2.95996 -7.1084l-113.774 -104.896c-3.16113 -2.75879 -6.61719 -3.35938 -10.374 -1.77246c-3.74805 1.77246 -5.63281 4.63477 -5.63281 8.59082v66.3701
h-369.778c-2.7627 0 -5.03516 0.886719 -6.81543 2.66406c-1.77734 1.77441 -2.66504 4.04688 -2.66504 6.81055v56.8877c0 2.76465 0.891602 5.03711 2.66602 6.81445c1.77539 1.77734 4.04883 2.66504 6.81543 2.66504h369.774v66.3701
c0 4.15039 1.88281 7.0127 5.63281 8.5957c3.75293 1.58008 7.20898 1.08594 10.3701 -1.48145z" />
    <glyph glyph-name="uniF1F5" unicode="&#xf1f5;" 
d="M412.156 297.659c5.4668 -5.4668 5.4668 -14.5088 0.104492 -20.0811c-2.7334 -2.83789 -6.41309 -4.20508 -9.9873 -4.20508s-7.25391 1.47168 -9.98828 4.20508l-121.954 121.955v-449.34c0 -7.88574 -6.30859 -14.1934 -14.1934 -14.1934
s-14.1934 6.30762 -14.1934 14.1934v449.34l-121.954 -121.955c-5.57227 -5.57129 -14.5088 -5.57129 -20.0811 0c-5.57227 5.57227 -5.57227 14.5088 0 20.0811l146.136 146.136c2.62793 2.7334 6.20312 4.20508 9.9873 4.20508
c3.67969 0 7.35938 -1.57715 9.98828 -4.20508z" />
    </font>
</defs>
</svg>
